NWA Powerrr Episode 23 Online Replay 2021 March 30

NWA Powerrr Episode 23 Online Replay 2021 March 30 DX-TV

NWA Powerrr Episode 23

 NWA Powerrr Episode 23

 

 

 

Download Links with High Speed


 

Dopapk

 

 

Show Links

 

http://shrt10.com/OiLol

 

[collapse]

 

 

Nitroflare

 

 

Show Links

 

http://shrt10.com/uufQog

 

[collapse]

 

 

Rapidgator

 

 

Show Links

 

http://shrt10.com/o9ego

 

[collapse]

 

 

Uploaded

 

 

Show Links

 

http://shrt10.com/EPGepWLK

 

[collapse]

 

 

Watch online

 

Server 1

 

 

 

 

watch now

 

 

 

 

Server-2

 

 

 

 

watch now

 

 

 

|Server-3

 

 

 

 

NWA Powerrr Episode 23

 

 

Uploaded By Site DX-TV.com

 

 

Show Info This Show

NWA Powerrr 

 

Complete name : NWA Powerrr Episode 23.mp4
Format : MPEG-4
Format profile : Base Media
Codec ID : isom
File size : 1.34 GiB
Duration : 50 min 11 s
Overall bit rate : 3 808 kb/s

Video
ID : 1
Format : AVC
Duration : 50 min 11 s
Source duration : 50 min 11 s
Bit rate : 3 553 kb/s
Nominal bit rate : 4 800 kb/s
Width : 1 920 pixels
Height : 1 080 pixels
Display aspect ratio : 16:9
Frame rate mode : Constant
Frame rate : 29.970 (30000/1001) FPS
Color space : YUV
Chroma subsampling : 4:2:0
Bit depth : 8 bits
Scan type : Progressive
Bits/(Pixel*Frame) : 0.057

NWA Powerrr 

Audio
ID : 2
Format : AAC LC
Format/Info : Advanced Audio
Codec ID : mp4a-40-2
Duration : 50 min 11 s
Bit rate mode : Constant
Bit rate : 96.0 kb/s
Channel(s) : 2 channels
Channel layout : L R
Sampling rate : 48.0 kHz
Frame rate : 46.875 FPS (1024 SPF)
Compression mode : Lossy
Stream size : 34.6 MiB (3%)
Default : Yes
Alternate group : 1

 

NWA Powerrr Episode 23

Audio
ID : 2
Format : AAC LC
Format/Info : Advanced Audio
Codec ID : mp4a-40-2
Duration : 50 min 11 s
Bit rate mode : Constant
Bit rate : 96.0 kb/s
Channel(s) : 2 channels
Channel layout : L R
Sampling rate : 48.0 kHz
Frame rate : 46.875 FPS (1024 SPF)
Compression mode : Lossy
Stream size : 34.6 MiB (3%)
Default : Yes
Alternate group : 1

NWA Powerrr Episode 23

 

Audio
ID : 2
Format : AAC LC
Format/Info : Advanced Audio
Codec ID : mp4a-40-2
Duration : 50 min 11 s
Bit rate mode : Constant
Bit rate : 96.0 kb/s
Channel(s) : 2 channels
Channel layout : L R
Sampling rate : 48.0 kHz
Frame rate : 46.875 FPS (1024 SPF)
Compression mode : Lossy
Stream size : 34.6 MiB (3%)
Default : Yes
Alternate group : 1

 

Audio
ID : 2
Format : AAC LC
Format/Info : Advanced Audio
Codec ID : mp4a-40-2
Duration : 50 min 11 s
Bit rate mode : Constant
Bit rate : 96.0 kb/s
Channel(s) : 2 channels
Channel layout : L R
Sampling rate : 48.0 kHz
Frame rate : 46.875 FPS (1024 SPF)
Compression mode : Lossy
Stream size : 34.6 MiB (3%)
Default : Yes
Alternate group : 1

[collapse]

 

 

https://dx-tv.com/