NWA Carnyland S01E03 Online 2020 06 09 720p

Watch NWA Carnyland S01E03 2020-06-09 720p AVCHD-SC-SDH DX-TV

 

NWA

 NWA Carnyland
 

 

NWA Carnyland S01E03 Online 2020 06 09 720p

 

 

 

Complete name : NWA Carnyland S01E03 2020-06-09 720p AVCHD-SC-SDH.mp4
Format : MPEG-4
Format profile : Base Media
Codec ID : NWA
File size : 1.12 GiB
Duration : 32 min 32 s
Overall bit rate mode : Variable
Overall bit rate : 4 925 kb/s
Writing application : NWA

Video
ID : 1
Format : AVC
Format/Info : Advanced Video Codec
wprofile : [email protected]
fsettings : NWA
asettings, CABAC : Yes
Format settings, : 2 frames
Format settings, GOP : M=3, N=9
Codec ID : avc1
Codec ID/Info : NWA
Duration : 32 min 32 s
Bit rate mode : Variable
Bit rate : 4 535 kb/s
Maximum bit rate : 8 480 kb/s
Width : 1 280 pixels
Height : 720 pixels
Display aspect ratio : 16:9
Frame rate mode : Variable
Frame rate : 29.970 (30000/1001) FPS
Minimum frame rate : 29.970 FPS
Maximum frame rate : 30.000 FPS
Color space : YUV
Chroma subsampling : 4:2:0
Bit depth : 8 bits
Scan type : Progressive
Bits/(Pixel*Frame) : 0.164
Stream size : 1.03 GiB (92%)
Color range : Limited
Color primaries : BT.709
Transfer characteristics : NWA
Matrix coefficients : BT.709
Codec configuration box : avcC

NWA Carnyland S01E03 Online 2020 06 09 720p

Audio
ID : 2
Format : AAC LC
Format/Info : NWA
Codec ID : mp4a-40-2
Duration : 32 min 32 s
Duration_LastFrame : -21 ms
Bit rate mode : Variable
Bit rate : 384 kb/s
Channel(s) : 2 channels
Channel layout : L R
Sampling rate : 48.0 kHz
Frame rate : 46.875 FPS (1024 SPF)
Compression mode : Lossy
Stream size : 88.8 MiB (8%)
Language : English
Default : Yes
Alternate group : NWA

 

 

 

 

NWA Carnyland S01E03 Online 2020 06 09 720p

 

 

 

Watch online

 

 

Server 1

 

 

 

 

watch now

 

 

 

 

Server 2

 

 

 

watch now

 

 

 

Uploaded By Site DX-TV.com

 

 

 

Download with premium account LinksĀ 

 

 

Keep2Share

 

 

nitroflare.com

 

 

rapidgator.net

 

 

uploadgig.com

 

 

 

dx-tv.com

 

urlfree.net

You May Also Like