NPU The Act Of Annihilation 2021 720p Online Free

NPU The Act Of Annihilation 2021 08 13 720p Online Free Replay DX-TV

Contents show

NPU The Act Of Annihilation

NPU The Act Of Annihilation

 

 

 

Download Links with premium High Speed


 

Dopapk

 

 

Show Links

 

http://shrt10.com/6fIuKYN

 

[collapse]

 

 

Nitroflare

 

 

Show Links

 

http://shrt10.com/43Sqj

 

[collapse]

 

 

Rapidgator

 

 

Show Links

 

http://shrt10.com/PGlZC

 

[collapse]

 

 

Uploaded

 

 

Show Links

 

http://shrt10.com/rVhSePTWt

 

[collapse]

 

 

Watch online

 

Server 1

 

 

 

 

NPU The Act Of Annihilation

 

 

 

 

Server-2

 

 

 

 

watch now

 

 

 

|Server-3

 

 

 

 

watch now

 

 

Uploaded By Site DX-TV.com

 

 

Show Info This Show

 

NPU The Act Of Annihilation

General
Complete name : No Peace Underground The Act Of Annihilation 720p 13 08 2021 dx-tv.com.mp4
Format : MPEG-4
Format profile : Base Media
Codec ID : isom
File size : 1.10 GiB
Duration : 1 h 54 min
Overall bit rate : 1 370 kb/s

Video
ID : 1
Format : AVC
Duration : 1 h 54 min
Bit rate : 1 233 kb/s
Width : 852 pixels
Height : 478 pixels
Display aspect ratio : 16:9
Frame rate mode : Variable
Frame rate : 28.846 FPS
Color space : YUV
Chroma subsampling : 4:2:0
Bit depth : 8 bits
Scan type : Progressive
Bits/(Pixel*Frame) : 0.105
Stream size : 1 011 MiB (90%)
Codec configuration box : avcC

NPU The Act Of Annihilation

Audio
ID : 2
Format : AAC LC
Format/Info : Advanced Audio
Codec ID : mp4a-40-2
Duration : 1 h 53 min
Bit rate mode : Constant
Bit rate : 132 kb/s
Channel(s) : 2 channels
Channel layout : L R
Sampling rate : 44.1 kHz
Frame rate : 43.066 FPS (1024 SPF)
Compression mode : Lossy
Stream size : 106 MiB (9%)
Default : Yes
Alternate group : 1

NPU The Act Of Annihilation

General
Complete name : No Peace Underground The Act Of Annihilation 720p 13 08 2021 dx-tv.com.mp4
Format : MPEG-4
Format profile : Base Media
Codec ID : isom
File size : 1.10 GiB
Duration : 1 h 54 min
Overall bit rate : 1 370 kb/s

Video
ID : 1
Format : AVC
Duration : 1 h 54 min
Bit rate : 1 233 kb/s
Width : 852 pixels
Height : 478 pixels
Display aspect ratio : 16:9
Frame rate mode : Variable
Frame rate : 28.846 FPS
Color space : YUV
Chroma subsampling : 4:2:0
Bit depth : 8 bits
Scan type : Progressive
Bits/(Pixel*Frame) : 0.105
Stream size : 1 011 MiB (90%)
Codec configuration box : avcC

NPU The Act Of Annihilation

Audio
ID : 2
Format : AAC LC
Format/Info : Advanced Audio
Codec ID : mp4a-40-2
Duration : 1 h 53 min
Bit rate mode : Constant
Bit rate : 132 kb/s
Channel(s) : 2 channels
Channel layout : L R
Sampling rate : 44.1 kHz
Frame rate : 43.066 FPS (1024 SPF)
Compression mode : Lossy
Stream size : 106 MiB (9%)
Default : Yes
Alternate group : 1

NPU The Act Of Annihilation

General
Complete name : No Peace Underground The Act Of Annihilation 720p 13 08 2021 dx-tv.com.mp4
Format : MPEG-4
Format profile : Base Media
Codec ID : isom
File size : 1.10 GiB
Duration : 1 h 54 min
Overall bit rate : 1 370 kb/s

Video
ID : 1
Format : AVC
Duration : 1 h 54 min
Bit rate : 1 233 kb/s
Width : 852 pixels
Height : 478 pixels
Display aspect ratio : 16:9
Frame rate mode : Variable
Frame rate : 28.846 FPS
Color space : YUV
Chroma subsampling : 4:2:0
Bit depth : 8 bits
Scan type : Progressive
Bits/(Pixel*Frame) : 0.105
Stream size : 1 011 MiB (90%)
Codec configuration box : avcC

NPU The Act Of Annihilation

Audio
ID : 2
Format : AAC LC
Format/Info : Advanced Audio
Codec ID : mp4a-40-2
Duration : 1 h 53 min
Bit rate mode : Constant
Bit rate : 132 kb/s
Channel(s) : 2 channels
Channel layout : L R
Sampling rate : 44.1 kHz
Frame rate : 43.066 FPS (1024 SPF)
Compression mode : Lossy
Stream size : 106 MiB (9%)
Default : Yes
Alternate group : 1

NPU The Act Of Annihilation

General
Complete name : No Peace Underground The Act Of Annihilation 720p 13 08 2021 dx-tv.com.mp4
Format : MPEG-4
Format profile : Base Media
Codec ID : isom
File size : 1.10 GiB
Duration : 1 h 54 min
Overall bit rate : 1 370 kb/s

Video
ID : 1
Format : AVC
Duration : 1 h 54 min
Bit rate : 1 233 kb/s
Width : 852 pixels
Height : 478 pixels
Display aspect ratio : 16:9
Frame rate mode : Variable
Frame rate : 28.846 FPS
Color space : YUV
Chroma subsampling : 4:2:0
Bit depth : 8 bits
Scan type : Progressive
Bits/(Pixel*Frame) : 0.105
Stream size : 1 011 MiB (90%)
Codec configuration box : avcC

NPU The Act Of Annihilation

Audio
ID : 2
Format : AAC LC
Format/Info : Advanced Audio
Codec ID : mp4a-40-2
Duration : 1 h 53 min
Bit rate mode : Constant
Bit rate : 132 kb/s
Channel(s) : 2 channels
Channel layout : L R
Sampling rate : 44.1 kHz
Frame rate : 43.066 FPS (1024 SPF)
Compression mode : Lossy
Stream size : 106 MiB (9%)
Default : Yes
Alternate group : 1

NPU The Act Of Annihilation

General
Complete name : No Peace Underground The Act Of Annihilation 720p 13 08 2021 dx-tv.com.mp4
Format : MPEG-4
Format profile : Base Media
Codec ID : isom
File size : 1.10 GiB
Duration : 1 h 54 min
Overall bit rate : 1 370 kb/s

Video
ID : 1
Format : AVC
Duration : 1 h 54 min
Bit rate : 1 233 kb/s
Width : 852 pixels
Height : 478 pixels
Display aspect ratio : 16:9
Frame rate mode : Variable
Frame rate : 28.846 FPS
Color space : YUV
Chroma subsampling : 4:2:0
Bit depth : 8 bits
Scan type : Progressive
Bits/(Pixel*Frame) : 0.105
Stream size : 1 011 MiB (90%)
Codec configuration box : avcC

NPU The Act Of Annihilation

Audio
ID : 2
Format : AAC LC
Format/Info : Advanced Audio
Codec ID : mp4a-40-2
Duration : 1 h 53 min
Bit rate mode : Constant
Bit rate : 132 kb/s
Channel(s) : 2 channels
Channel layout : L R
Sampling rate : 44.1 kHz
Frame rate : 43.066 FPS (1024 SPF)
Compression mode : Lossy
Stream size : 106 MiB (9%)
Default : Yes
Alternate group : 1

NPU The Act Of Annihilation

General
Complete name : No Peace Underground The Act Of Annihilation 720p 13 08 2021 dx-tv.com.mp4
Format : MPEG-4
Format profile : Base Media
Codec ID : isom
File size : 1.10 GiB
Duration : 1 h 54 min
Overall bit rate : 1 370 kb/s

Video
ID : 1
Format : AVC
Duration : 1 h 54 min
Bit rate : 1 233 kb/s
Width : 852 pixels
Height : 478 pixels
Display aspect ratio : 16:9
Frame rate mode : Variable
Frame rate : 28.846 FPS
Color space : YUV
Chroma subsampling : 4:2:0
Bit depth : 8 bits
Scan type : Progressive
Bits/(Pixel*Frame) : 0.105
Stream size : 1 011 MiB (90%)
Codec configuration box : avcC

NPU The Act Of Annihilation

Audio
ID : 2
Format : AAC LC
Format/Info : Advanced Audio
Codec ID : mp4a-40-2
Duration : 1 h 53 min
Bit rate mode : Constant
Bit rate : 132 kb/s
Channel(s) : 2 channels
Channel layout : L R
Sampling rate : 44.1 kHz
Frame rate : 43.066 FPS (1024 SPF)
Compression mode : Lossy
Stream size : 106 MiB (9%)
Default : Yes
Alternate group : 1

NPU The Act Of Annihilation

General
Complete name : No Peace Underground The Act Of Annihilation 720p 13 08 2021 dx-tv.com.mp4
Format : MPEG-4
Format profile : Base Media
Codec ID : isom
File size : 1.10 GiB
Duration : 1 h 54 min
Overall bit rate : 1 370 kb/s

Video
ID : 1
Format : AVC
Duration : 1 h 54 min
Bit rate : 1 233 kb/s
Width : 852 pixels
Height : 478 pixels
Display aspect ratio : 16:9
Frame rate mode : Variable
Frame rate : 28.846 FPS
Color space : YUV
Chroma subsampling : 4:2:0
Bit depth : 8 bits
Scan type : Progressive
Bits/(Pixel*Frame) : 0.105
Stream size : 1 011 MiB (90%)
Codec configuration box : avcC

NPU The Act Of Annihilation

Audio
ID : 2
Format : AAC LC
Format/Info : Advanced Audio
Codec ID : mp4a-40-2
Duration : 1 h 53 min
Bit rate mode : Constant
Bit rate : 132 kb/s
Channel(s) : 2 channels
Channel layout : L R
Sampling rate : 44.1 kHz
Frame rate : 43.066 FPS (1024 SPF)
Compression mode : Lossy
Stream size : 106 MiB (9%)
Default : Yes
Alternate group : 1

NPU The Act Of Annihilation

General
Complete name : No Peace Underground The Act Of Annihilation 720p 13 08 2021 dx-tv.com.mp4
Format : MPEG-4
Format profile : Base Media
Codec ID : isom
File size : 1.10 GiB
Duration : 1 h 54 min
Overall bit rate : 1 370 kb/s

Video
ID : 1
Format : AVC
Duration : 1 h 54 min
Bit rate : 1 233 kb/s
Width : 852 pixels
Height : 478 pixels
Display aspect ratio : 16:9
Frame rate mode : Variable
Frame rate : 28.846 FPS
Color space : YUV
Chroma subsampling : 4:2:0
Bit depth : 8 bits
Scan type : Progressive
Bits/(Pixel*Frame) : 0.105
Stream size : 1 011 MiB (90%)
Codec configuration box : avcC

NPU The Act Of Annihilation

Audio
ID : 2
Format : AAC LC
Format/Info : Advanced Audio
Codec ID : mp4a-40-2
Duration : 1 h 53 min
Bit rate mode : Constant
Bit rate : 132 kb/s
Channel(s) : 2 channels
Channel layout : L R
Sampling rate : 44.1 kHz
Frame rate : 43.066 FPS (1024 SPF)
Compression mode : Lossy
Stream size : 106 MiB (9%)
Default : Yes
Alternate group : 1

NPU The Act Of Annihilation

General
Complete name : No Peace Underground The Act Of Annihilation 720p 13 08 2021 dx-tv.com.mp4
Format : MPEG-4
Format profile : Base Media
Codec ID : isom
File size : 1.10 GiB
Duration : 1 h 54 min
Overall bit rate : 1 370 kb/s

Video
ID : 1
Format : AVC
Duration : 1 h 54 min
Bit rate : 1 233 kb/s
Width : 852 pixels
Height : 478 pixels
Display aspect ratio : 16:9
Frame rate mode : Variable
Frame rate : 28.846 FPS
Color space : YUV
Chroma subsampling : 4:2:0
Bit depth : 8 bits
Scan type : Progressive
Bits/(Pixel*Frame) : 0.105
Stream size : 1 011 MiB (90%)
Codec configuration box : avcC

NPU The Act Of Annihilation

Audio
ID : 2
Format : AAC LC
Format/Info : Advanced Audio
Codec ID : mp4a-40-2
Duration : 1 h 53 min
Bit rate mode : Constant
Bit rate : 132 kb/s
Channel(s) : 2 channels
Channel layout : L R
Sampling rate : 44.1 kHz
Frame rate : 43.066 FPS (1024 SPF)
Compression mode : Lossy
Stream size : 106 MiB (9%)
Default : Yes
Alternate group : 1

NPU The Act Of Annihilation

General
Complete name : No Peace Underground The Act Of Annihilation 720p 13 08 2021 dx-tv.com.mp4
Format : MPEG-4
Format profile : Base Media
Codec ID : isom
File size : 1.10 GiB
Duration : 1 h 54 min
Overall bit rate : 1 370 kb/s

Video
ID : 1
Format : AVC
Duration : 1 h 54 min
Bit rate : 1 233 kb/s
Width : 852 pixels
Height : 478 pixels
Display aspect ratio : 16:9
Frame rate mode : Variable
Frame rate : 28.846 FPS
Color space : YUV
Chroma subsampling : 4:2:0
Bit depth : 8 bits
Scan type : Progressive
Bits/(Pixel*Frame) : 0.105
Stream size : 1 011 MiB (90%)
Codec configuration box : avcC

NPU The Act Of Annihilation

Audio
ID : 2
Format : AAC LC
Format/Info : Advanced Audio
Codec ID : mp4a-40-2
Duration : 1 h 53 min
Bit rate mode : Constant
Bit rate : 132 kb/s
Channel(s) : 2 channels
Channel layout : L R
Sampling rate : 44.1 kHz
Frame rate : 43.066 FPS (1024 SPF)
Compression mode : Lossy
Stream size : 106 MiB (9%)
Default : Yes
Alternate group : 1

NPU The Act Of Annihilation

General
Complete name : No Peace Underground The Act Of Annihilation 720p 13 08 2021 dx-tv.com.mp4
Format : MPEG-4
Format profile : Base Media
Codec ID : isom
File size : 1.10 GiB
Duration : 1 h 54 min
Overall bit rate : 1 370 kb/s

Video
ID : 1
Format : AVC
Duration : 1 h 54 min
Bit rate : 1 233 kb/s
Width : 852 pixels
Height : 478 pixels
Display aspect ratio : 16:9
Frame rate mode : Variable
Frame rate : 28.846 FPS
Color space : YUV
Chroma subsampling : 4:2:0
Bit depth : 8 bits
Scan type : Progressive
Bits/(Pixel*Frame) : 0.105
Stream size : 1 011 MiB (90%)
Codec configuration box : avcC

NPU The Act Of Annihilation

Audio
ID : 2
Format : AAC LC
Format/Info : Advanced Audio
Codec ID : mp4a-40-2
Duration : 1 h 53 min
Bit rate mode : Constant
Bit rate : 132 kb/s
Channel(s) : 2 channels
Channel layout : L R
Sampling rate : 44.1 kHz
Frame rate : 43.066 FPS (1024 SPF)
Compression mode : Lossy
Stream size : 106 MiB (9%)
Default : Yes
Alternate group : 1

NPU The Act Of Annihilation

General
Complete name : No Peace Underground The Act Of Annihilation 720p 13 08 2021 dx-tv.com.mp4
Format : MPEG-4
Format profile : Base Media
Codec ID : isom
File size : 1.10 GiB
Duration : 1 h 54 min
Overall bit rate : 1 370 kb/s

Video
ID : 1
Format : AVC
Duration : 1 h 54 min
Bit rate : 1 233 kb/s
Width : 852 pixels
Height : 478 pixels
Display aspect ratio : 16:9
Frame rate mode : Variable
Frame rate : 28.846 FPS
Color space : YUV
Chroma subsampling : 4:2:0
Bit depth : 8 bits
Scan type : Progressive
Bits/(Pixel*Frame) : 0.105
Stream size : 1 011 MiB (90%)
Codec configuration box : avcC

NPU The Act Of Annihilation

Audio
ID : 2
Format : AAC LC
Format/Info : Advanced Audio
Codec ID : mp4a-40-2
Duration : 1 h 53 min
Bit rate mode : Constant
Bit rate : 132 kb/s
Channel(s) : 2 channels
Channel layout : L R
Sampling rate : 44.1 kHz
Frame rate : 43.066 FPS (1024 SPF)
Compression mode : Lossy
Stream size : 106 MiB (9%)
Default : Yes
Alternate group : 1

NPU The Act Of Annihilation

General
Complete name : No Peace Underground The Act Of Annihilation 720p 13 08 2021 dx-tv.com.mp4
Format : MPEG-4
Format profile : Base Media
Codec ID : isom
File size : 1.10 GiB
Duration : 1 h 54 min
Overall bit rate : 1 370 kb/s

Video
ID : 1
Format : AVC
Duration : 1 h 54 min
Bit rate : 1 233 kb/s
Width : 852 pixels
Height : 478 pixels
Display aspect ratio : 16:9
Frame rate mode : Variable
Frame rate : 28.846 FPS
Color space : YUV
Chroma subsampling : 4:2:0
Bit depth : 8 bits
Scan type : Progressive
Bits/(Pixel*Frame) : 0.105
Stream size : 1 011 MiB (90%)
Codec configuration box : avcC

NPU The Act Of Annihilation

Audio
ID : 2
Format : AAC LC
Format/Info : Advanced Audio
Codec ID : mp4a-40-2
Duration : 1 h 53 min
Bit rate mode : Constant
Bit rate : 132 kb/s
Channel(s) : 2 channels
Channel layout : L R
Sampling rate : 44.1 kHz
Frame rate : 43.066 FPS (1024 SPF)
Compression mode : Lossy
Stream size : 106 MiB (9%)
Default : Yes
Alternate group : 1

NPU The Act Of Annihilation

General
Complete name : No Peace Underground The Act Of Annihilation 720p 13 08 2021 dx-tv.com.mp4
Format : MPEG-4
Format profile : Base Media
Codec ID : isom
File size : 1.10 GiB
Duration : 1 h 54 min
Overall bit rate : 1 370 kb/s

Video
ID : 1
Format : AVC
Duration : 1 h 54 min
Bit rate : 1 233 kb/s
Width : 852 pixels
Height : 478 pixels
Display aspect ratio : 16:9
Frame rate mode : Variable
Frame rate : 28.846 FPS
Color space : YUV
Chroma subsampling : 4:2:0
Bit depth : 8 bits
Scan type : Progressive
Bits/(Pixel*Frame) : 0.105
Stream size : 1 011 MiB (90%)
Codec configuration box : avcC

NPU The Act Of Annihilation

Audio
ID : 2
Format : AAC LC
Format/Info : Advanced Audio
Codec ID : mp4a-40-2
Duration : 1 h 53 min
Bit rate mode : Constant
Bit rate : 132 kb/s
Channel(s) : 2 channels
Channel layout : L R
Sampling rate : 44.1 kHz
Frame rate : 43.066 FPS (1024 SPF)
Compression mode : Lossy
Stream size : 106 MiB (9%)
Default : Yes
Alternate group : 1

NPU The Act Of Annihilation

General
Complete name : No Peace Underground The Act Of Annihilation 720p 13 08 2021 dx-tv.com.mp4
Format : MPEG-4
Format profile : Base Media
Codec ID : isom
File size : 1.10 GiB
Duration : 1 h 54 min
Overall bit rate : 1 370 kb/s

Video
ID : 1
Format : AVC
Duration : 1 h 54 min
Bit rate : 1 233 kb/s
Width : 852 pixels
Height : 478 pixels
Display aspect ratio : 16:9
Frame rate mode : Variable
Frame rate : 28.846 FPS
Color space : YUV
Chroma subsampling : 4:2:0
Bit depth : 8 bits
Scan type : Progressive
Bits/(Pixel*Frame) : 0.105
Stream size : 1 011 MiB (90%)
Codec configuration box : avcC

NPU The Act Of Annihilation

Audio
ID : 2
Format : AAC LC
Format/Info : Advanced Audio
Codec ID : mp4a-40-2
Duration : 1 h 53 min
Bit rate mode : Constant
Bit rate : 132 kb/s
Channel(s) : 2 channels
Channel layout : L R
Sampling rate : 44.1 kHz
Frame rate : 43.066 FPS (1024 SPF)
Compression mode : Lossy
Stream size : 106 MiB (9%)
Default : Yes
Alternate group : 1

NPU The Act Of Annihilation

General
Complete name : No Peace Underground The Act Of Annihilation 720p 13 08 2021 dx-tv.com.mp4
Format : MPEG-4
Format profile : Base Media
Codec ID : isom
File size : 1.10 GiB
Duration : 1 h 54 min
Overall bit rate : 1 370 kb/s

Video
ID : 1
Format : AVC
Duration : 1 h 54 min
Bit rate : 1 233 kb/s
Width : 852 pixels
Height : 478 pixels
Display aspect ratio : 16:9
Frame rate mode : Variable
Frame rate : 28.846 FPS
Color space : YUV
Chroma subsampling : 4:2:0
Bit depth : 8 bits
Scan type : Progressive
Bits/(Pixel*Frame) : 0.105
Stream size : 1 011 MiB (90%)
Codec configuration box : avcC

NPU The Act Of Annihilation

Audio
ID : 2
Format : AAC LC
Format/Info : Advanced Audio
Codec ID : mp4a-40-2
Duration : 1 h 53 min
Bit rate mode : Constant
Bit rate : 132 kb/s
Channel(s) : 2 channels
Channel layout : L R
Sampling rate : 44.1 kHz
Frame rate : 43.066 FPS (1024 SPF)
Compression mode : Lossy
Stream size : 106 MiB (9%)
Default : Yes
Alternate group : 1

NPU The Act Of Annihilation

General
Complete name : No Peace Underground The Act Of Annihilation 720p 13 08 2021 dx-tv.com.mp4
Format : MPEG-4
Format profile : Base Media
Codec ID : isom
File size : 1.10 GiB
Duration : 1 h 54 min
Overall bit rate : 1 370 kb/s

Video
ID : 1
Format : AVC
Duration : 1 h 54 min
Bit rate : 1 233 kb/s
Width : 852 pixels
Height : 478 pixels
Display aspect ratio : 16:9
Frame rate mode : Variable
Frame rate : 28.846 FPS
Color space : YUV
Chroma subsampling : 4:2:0
Bit depth : 8 bits
Scan type : Progressive
Bits/(Pixel*Frame) : 0.105
Stream size : 1 011 MiB (90%)
Codec configuration box : avcC

NPU The Act Of Annihilation

Audio
ID : 2
Format : AAC LC
Format/Info : Advanced Audio
Codec ID : mp4a-40-2
Duration : 1 h 53 min
Bit rate mode : Constant
Bit rate : 132 kb/s
Channel(s) : 2 channels
Channel layout : L R
Sampling rate : 44.1 kHz
Frame rate : 43.066 FPS (1024 SPF)
Compression mode : Lossy
Stream size : 106 MiB (9%)
Default : Yes
Alternate group : 1

NPU The Act Of Annihilation

General
Complete name : No Peace Underground The Act Of Annihilation 720p 13 08 2021 dx-tv.com.mp4
Format : MPEG-4
Format profile : Base Media
Codec ID : isom
File size : 1.10 GiB
Duration : 1 h 54 min
Overall bit rate : 1 370 kb/s

Video
ID : 1
Format : AVC
Duration : 1 h 54 min
Bit rate : 1 233 kb/s
Width : 852 pixels
Height : 478 pixels
Display aspect ratio : 16:9
Frame rate mode : Variable
Frame rate : 28.846 FPS
Color space : YUV
Chroma subsampling : 4:2:0
Bit depth : 8 bits
Scan type : Progressive
Bits/(Pixel*Frame) : 0.105
Stream size : 1 011 MiB (90%)
Codec configuration box : avcC

NPU The Act Of Annihilation

Audio
ID : 2
Format : AAC LC
Format/Info : Advanced Audio
Codec ID : mp4a-40-2
Duration : 1 h 53 min
Bit rate mode : Constant
Bit rate : 132 kb/s
Channel(s) : 2 channels
Channel layout : L R
Sampling rate : 44.1 kHz
Frame rate : 43.066 FPS (1024 SPF)
Compression mode : Lossy
Stream size : 106 MiB (9%)
Default : Yes
Alternate group : 1

NPU The Act Of Annihilation

General
Complete name : No Peace Underground The Act Of Annihilation 720p 13 08 2021 dx-tv.com.mp4
Format : MPEG-4
Format profile : Base Media
Codec ID : isom
File size : 1.10 GiB
Duration : 1 h 54 min
Overall bit rate : 1 370 kb/s

Video
ID : 1
Format : AVC
Duration : 1 h 54 min
Bit rate : 1 233 kb/s
Width : 852 pixels
Height : 478 pixels
Display aspect ratio : 16:9
Frame rate mode : Variable
Frame rate : 28.846 FPS
Color space : YUV
Chroma subsampling : 4:2:0
Bit depth : 8 bits
Scan type : Progressive
Bits/(Pixel*Frame) : 0.105
Stream size : 1 011 MiB (90%)
Codec configuration box : avcC

NPU The Act Of Annihilation

Audio
ID : 2
Format : AAC LC
Format/Info : Advanced Audio
Codec ID : mp4a-40-2
Duration : 1 h 53 min
Bit rate mode : Constant
Bit rate : 132 kb/s
Channel(s) : 2 channels
Channel layout : L R
Sampling rate : 44.1 kHz
Frame rate : 43.066 FPS (1024 SPF)
Compression mode : Lossy
Stream size : 106 MiB (9%)
Default : Yes
Alternate group : 1

NPU The Act Of Annihilation

General
Complete name : No Peace Underground The Act Of Annihilation 720p 13 08 2021 dx-tv.com.mp4
Format : MPEG-4
Format profile : Base Media
Codec ID : isom
File size : 1.10 GiB
Duration : 1 h 54 min
Overall bit rate : 1 370 kb/s

Video
ID : 1
Format : AVC
Duration : 1 h 54 min
Bit rate : 1 233 kb/s
Width : 852 pixels
Height : 478 pixels
Display aspect ratio : 16:9
Frame rate mode : Variable
Frame rate : 28.846 FPS
Color space : YUV
Chroma subsampling : 4:2:0
Bit depth : 8 bits
Scan type : Progressive
Bits/(Pixel*Frame) : 0.105
Stream size : 1 011 MiB (90%)
Codec configuration box : avcC

NPU The Act Of Annihilation

Audio
ID : 2
Format : AAC LC
Format/Info : Advanced Audio
Codec ID : mp4a-40-2
Duration : 1 h 53 min
Bit rate mode : Constant
Bit rate : 132 kb/s
Channel(s) : 2 channels
Channel layout : L R
Sampling rate : 44.1 kHz
Frame rate : 43.066 FPS (1024 SPF)
Compression mode : Lossy
Stream size : 106 MiB (9%)
Default : Yes
Alternate group : 1

NPU The Act Of Annihilation

General
Complete name : No Peace Underground The Act Of Annihilation 720p 13 08 2021 dx-tv.com.mp4
Format : MPEG-4
Format profile : Base Media
Codec ID : isom
File size : 1.10 GiB
Duration : 1 h 54 min
Overall bit rate : 1 370 kb/s

Video
ID : 1
Format : AVC
Duration : 1 h 54 min
Bit rate : 1 233 kb/s
Width : 852 pixels
Height : 478 pixels
Display aspect ratio : 16:9
Frame rate mode : Variable
Frame rate : 28.846 FPS
Color space : YUV
Chroma subsampling : 4:2:0
Bit depth : 8 bits
Scan type : Progressive
Bits/(Pixel*Frame) : 0.105
Stream size : 1 011 MiB (90%)
Codec configuration box : avcC

NPU The Act Of Annihilation

Audio
ID : 2
Format : AAC LC
Format/Info : Advanced Audio
Codec ID : mp4a-40-2
Duration : 1 h 53 min
Bit rate mode : Constant
Bit rate : 132 kb/s
Channel(s) : 2 channels
Channel layout : L R
Sampling rate : 44.1 kHz
Frame rate : 43.066 FPS (1024 SPF)
Compression mode : Lossy
Stream size : 106 MiB (9%)
Default : Yes
Alternate group : 1

NPU The Act Of Annihilation

General
Complete name : No Peace Underground The Act Of Annihilation 720p 13 08 2021 dx-tv.com.mp4
Format : MPEG-4
Format profile : Base Media
Codec ID : isom
File size : 1.10 GiB
Duration : 1 h 54 min
Overall bit rate : 1 370 kb/s

Video
ID : 1
Format : AVC
Duration : 1 h 54 min
Bit rate : 1 233 kb/s
Width : 852 pixels
Height : 478 pixels
Display aspect ratio : 16:9
Frame rate mode : Variable
Frame rate : 28.846 FPS
Color space : YUV
Chroma subsampling : 4:2:0
Bit depth : 8 bits
Scan type : Progressive
Bits/(Pixel*Frame) : 0.105
Stream size : 1 011 MiB (90%)
Codec configuration box : avcC

NPU The Act Of Annihilation

Audio
ID : 2
Format : AAC LC
Format/Info : Advanced Audio
Codec ID : mp4a-40-2
Duration : 1 h 53 min
Bit rate mode : Constant
Bit rate : 132 kb/s
Channel(s) : 2 channels
Channel layout : L R
Sampling rate : 44.1 kHz
Frame rate : 43.066 FPS (1024 SPF)
Compression mode : Lossy
Stream size : 106 MiB (9%)
Default : Yes
Alternate group : 1

NPU The Act Of Annihilation

General
Complete name : No Peace Underground The Act Of Annihilation 720p 13 08 2021 dx-tv.com.mp4
Format : MPEG-4
Format profile : Base Media
Codec ID : isom
File size : 1.10 GiB
Duration : 1 h 54 min
Overall bit rate : 1 370 kb/s

Video
ID : 1
Format : AVC
Duration : 1 h 54 min
Bit rate : 1 233 kb/s
Width : 852 pixels
Height : 478 pixels
Display aspect ratio : 16:9
Frame rate mode : Variable
Frame rate : 28.846 FPS
Color space : YUV
Chroma subsampling : 4:2:0
Bit depth : 8 bits
Scan type : Progressive
Bits/(Pixel*Frame) : 0.105
Stream size : 1 011 MiB (90%)
Codec configuration box : avcC

NPU The Act Of Annihilation

Audio
ID : 2
Format : AAC LC
Format/Info : Advanced Audio
Codec ID : mp4a-40-2
Duration : 1 h 53 min
Bit rate mode : Constant
Bit rate : 132 kb/s
Channel(s) : 2 channels
Channel layout : L R
Sampling rate : 44.1 kHz
Frame rate : 43.066 FPS (1024 SPF)
Compression mode : Lossy
Stream size : 106 MiB (9%)
Default : Yes
Alternate group : 1

NPU The Act Of Annihilation

 

[collapse]

 

 

https://dx-tv.com/

You May Also Like

Leave a Reply

Your email address will not be published. Required fields are marked *

This site uses Akismet to reduce spam. Learn how your comment data is processed.