NOAH Up To Emotion 2021 06 30 Online Free

NOAH Up To Emotion 2021 06 30 Online Free Replay DX-TV

NOAH

 NOAH Up To Emotion

 

 

 

Download Links with High Speed


Dopapk

 

 

Show Links

 

http://shrt10.com/3SXcOt
http://shrt10.com/glaoMIjcD
http://shrt10.com/935Ii

 

[collapse]

 

 

Nitroflare

 

 

Show Links

 

http://shrt10.com/iTDjh6US
http://shrt10.com/szWEd
http://shrt10.com/2ftFx

 

[collapse]

 

 

Rapidgator

 

 

Show Links

 

http://shrt10.com/zhtN4wo9
http://shrt10.com/128HYetPK
http://shrt10.com/Th3Jl

 

[collapse]

 

 

Uploaded

 

 

Show Links

 

http://shrt10.com/XYG7JJhs
http://shrt10.com/SOEaNtR

 

[collapse]

 

 

Watch online

 

Server 1

 

 

 

 

NOAH

 

 

 

 

Server-2

 

 

 

 

watch now

 

 

 

|Server-4

 

 

 

 

watch now

 

 

Uploaded By Site DX-TV.com

 

 

Show Info This Show

NOAH

 

Complete name : NOAH.2021.06.30.Up.To.Emotion.2021.JAPANESE.720p.WEB.h264-LATE.mkv
Format : Matroska
Format version : Version 4
File size : 3.37 GiB
Duration : 2 h 24 min
Overall bit rate mode : Variable
Overall bit rate : 3 341 kb/s

Video
ID : 1
Format : AVC
Duration : 2 h 24 min
Bit rate mode : Variable
Bit rate : 3 149 kb/s
Maximum bit rate : 8 000 kb/s
Width : 1 280 pixels
Height : 720 pixels
Display aspect ratio : 16:9
Frame rate mode : Constant
Frame rate : 29.970 (30000/1001) FPS
Color space : YUV
Chroma subsampling : 4:2:0
Bit depth : 8 bits
Scan type : Progressive
Bits/(Pixel*Frame) : 0.114
Stream size : 3.18 GiB (94%)
Default : Yes
Forced : No
Color range : Limited
Color primaries : BT.709
Transfer characteristics : BT.709
Matrix coefficients : BT.709

NOAH

Audio
ID : 2
Format : AAC LC
Format/Info : Advanced Audio
Codec ID : A_AAC-2
Duration : 2 h 24 min
Bit rate : 192 kb/s
Channel(s) : 2 channels
Channel layout : L R
Sampling rate : 48.0 kHz
Frame rate : 46.875 FPS (1024 SPF)
Compression mode : Lossy
Stream size : 196 MiB (6%)
Default : Yes
Forced : No

Complete name : NOAH.2021.06.30.Up.To.Emotion.2021.JAPANESE.1080p.WEB.h264-LATE.mkv
Format : Matroska
Format version : Version 4
File size : 7.93 GiB
Duration : 2 h 24 min
Overall bit rate mode : Variable
Overall bit rate : 7 862 kb/s

NOAH

Video
ID : 1
Format : AVC
Format/Info : Advanced Video
Duration : 2 h 24 min
Bit rate mode : Variable
Bit rate : 7 478 kb/s
Maximum bit rate : 18.0 Mb/s
Width : 1 920 pixels
Height : 1 080 pixels
Display aspect ratio : 16:9
Frame rate mode : Constant
Frame rate : 29.970 (30000/1001) FPS
Color space : YUV
Chroma subsampling : 4:2:0
Bit depth : 8 bits
Scan type : Progressive
Bits/(Pixel*Frame) : 0.120
Stream size : 7.54 GiB (95%)
Default : Yes
Forced : No
Color range : Limited
Color primaries : BT.709
Transfer characteristics : BT.709
Matrix coefficients : BT.709

NOAH

Audio
ID : 2
Format : AAC LC
Format/Info : Advanced Audio
Codec ID : A_AAC-2
Duration : 2 h 24 min
Bit rate : 384 kb/s
Channel(s) : 2 channels
Channel layout : L R
Sampling rate : 48.0 kHz
Frame rate : 46.875 FPS (1024 SPF)
Compression mode : Lossy
Stream size : 394 MiB (5%)
Default : Yes
Forced : No

Complete name : NOAH.2021.06.30.Up.To.Emotion.2021.JAPANESE.WEB.h264-LATE.mkv
Format : Matroska
Format version : Version 4
File size : 1.62 GiB
Duration : 2 h 24 min
Overall bit rate mode : Variable
Overall bit rate : 1 606 kb/s

NOAH

Video
ID : 1
Format : AVC
Format/Info : Advanced Video
Duration : 2 h 24 min
Bit rate mode : Variable
Bit rate : 1 478 kb/s
Maximum bit rate : 4 000 kb/s
Width : 960 pixels
Height : 540 pixels
Display aspect ratio : 16:9
Frame rate mode : Constant
Frame rate : 29.970 (30000/1001) FPS
Color space : YUV
Chroma subsampling : 4:2:0
Bit depth : 8 bits
Scan type : Progressive
Bits/(Pixel*Frame) : 0.095
Stream size : 1.49 GiB (92%)
Default : Yes
Forced : No
Color range : Limited
Color primaries : BT.709
Transfer characteristics : BT.709
Matrix coefficients : BT.709

NOAH

Audio
ID : 2
Format : AAC LC
Format/Info : Advanced Audio
Codec ID : A_AAC-2
Duration : 2 h 24 min
Bit rate : 125 kb/s
Channel(s) : 2 channels
Channel layout : L R
Sampling rate : 48.0 kHz
Frame rate : 46.875 FPS (1024 SPF)
Compression mode : Lossy
Stream size : 129 MiB (8%)
Default : Yes
Forced : No

NOAH

Complete name : NOAH.2021.06.30.Up.To.Emotion.2021.JAPANESE.720p.WEB.h264-LATE.mkv
Format : Matroska
Format version : Version 4
File size : 3.37 GiB
Duration : 2 h 24 min
Overall bit rate mode : Variable
Overall bit rate : 3 341 kb/s

Video
ID : 1
Format : AVC
Duration : 2 h 24 min
Bit rate mode : Variable
Bit rate : 3 149 kb/s
Maximum bit rate : 8 000 kb/s
Width : 1 280 pixels
Height : 720 pixels
Display aspect ratio : 16:9
Frame rate mode : Constant
Frame rate : 29.970 (30000/1001) FPS
Color space : YUV
Chroma subsampling : 4:2:0
Bit depth : 8 bits
Scan type : Progressive
Bits/(Pixel*Frame) : 0.114
Stream size : 3.18 GiB (94%)
Default : Yes
Forced : No
Color range : Limited
Color primaries : BT.709
Transfer characteristics : BT.709
Matrix coefficients : BT.709

NOAH

Audio
ID : 2
Format : AAC LC
Format/Info : Advanced Audio
Codec ID : A_AAC-2
Duration : 2 h 24 min
Bit rate : 192 kb/s
Channel(s) : 2 channels
Channel layout : L R
Sampling rate : 48.0 kHz
Frame rate : 46.875 FPS (1024 SPF)
Compression mode : Lossy
Stream size : 196 MiB (6%)
Default : Yes
Forced : No

Complete name : NOAH.2021.06.30.Up.To.Emotion.2021.JAPANESE.1080p.WEB.h264-LATE.mkv
Format : Matroska
Format version : Version 4
File size : 7.93 GiB
Duration : 2 h 24 min
Overall bit rate mode : Variable
Overall bit rate : 7 862 kb/s

NOAH

Video
ID : 1
Format : AVC
Format/Info : Advanced Video
Duration : 2 h 24 min
Bit rate mode : Variable
Bit rate : 7 478 kb/s
Maximum bit rate : 18.0 Mb/s
Width : 1 920 pixels
Height : 1 080 pixels
Display aspect ratio : 16:9
Frame rate mode : Constant
Frame rate : 29.970 (30000/1001) FPS
Color space : YUV
Chroma subsampling : 4:2:0
Bit depth : 8 bits
Scan type : Progressive
Bits/(Pixel*Frame) : 0.120
Stream size : 7.54 GiB (95%)
Default : Yes
Forced : No
Color range : Limited
Color primaries : BT.709
Transfer characteristics : BT.709
Matrix coefficients : BT.709

NOAH

Audio
ID : 2
Format : AAC LC
Format/Info : Advanced Audio
Codec ID : A_AAC-2
Duration : 2 h 24 min
Bit rate : 384 kb/s
Channel(s) : 2 channels
Channel layout : L R
Sampling rate : 48.0 kHz
Frame rate : 46.875 FPS (1024 SPF)
Compression mode : Lossy
Stream size : 394 MiB (5%)
Default : Yes
Forced : No

Complete name : NOAH.2021.06.30.Up.To.Emotion.2021.JAPANESE.WEB.h264-LATE.mkv
Format : Matroska
Format version : Version 4
File size : 1.62 GiB
Duration : 2 h 24 min
Overall bit rate mode : Variable
Overall bit rate : 1 606 kb/s

NOAH

Video
ID : 1
Format : AVC
Format/Info : Advanced Video
Duration : 2 h 24 min
Bit rate mode : Variable
Bit rate : 1 478 kb/s
Maximum bit rate : 4 000 kb/s
Width : 960 pixels
Height : 540 pixels
Display aspect ratio : 16:9
Frame rate mode : Constant
Frame rate : 29.970 (30000/1001) FPS
Color space : YUV
Chroma subsampling : 4:2:0
Bit depth : 8 bits
Scan type : Progressive
Bits/(Pixel*Frame) : 0.095
Stream size : 1.49 GiB (92%)
Default : Yes
Forced : No
Color range : Limited
Color primaries : BT.709
Transfer characteristics : BT.709
Matrix coefficients : BT.709

NOAH

Audio
ID : 2
Format : AAC LC
Format/Info : Advanced Audio
Codec ID : A_AAC-2
Duration : 2 h 24 min
Bit rate : 125 kb/s
Channel(s) : 2 channels
Channel layout : L R
Sampling rate : 48.0 kHz
Frame rate : 46.875 FPS (1024 SPF)
Compression mode : Lossy
Stream size : 129 MiB (8%)
Default : Yes
Forced : No

NOAH

Complete name : NOAH.2021.06.30.Up.To.Emotion.2021.JAPANESE.720p.WEB.h264-LATE.mkv
Format : Matroska
Format version : Version 4
File size : 3.37 GiB
Duration : 2 h 24 min
Overall bit rate mode : Variable
Overall bit rate : 3 341 kb/s

Video
ID : 1
Format : AVC
Duration : 2 h 24 min
Bit rate mode : Variable
Bit rate : 3 149 kb/s
Maximum bit rate : 8 000 kb/s
Width : 1 280 pixels
Height : 720 pixels
Display aspect ratio : 16:9
Frame rate mode : Constant
Frame rate : 29.970 (30000/1001) FPS
Color space : YUV
Chroma subsampling : 4:2:0
Bit depth : 8 bits
Scan type : Progressive
Bits/(Pixel*Frame) : 0.114
Stream size : 3.18 GiB (94%)
Default : Yes
Forced : No
Color range : Limited
Color primaries : BT.709
Transfer characteristics : BT.709
Matrix coefficients : BT.709

NOAH

Audio
ID : 2
Format : AAC LC
Format/Info : Advanced Audio
Codec ID : A_AAC-2
Duration : 2 h 24 min
Bit rate : 192 kb/s
Channel(s) : 2 channels
Channel layout : L R
Sampling rate : 48.0 kHz
Frame rate : 46.875 FPS (1024 SPF)
Compression mode : Lossy
Stream size : 196 MiB (6%)
Default : Yes
Forced : No

Complete name : NOAH.2021.06.30.Up.To.Emotion.2021.JAPANESE.1080p.WEB.h264-LATE.mkv
Format : Matroska
Format version : Version 4
File size : 7.93 GiB
Duration : 2 h 24 min
Overall bit rate mode : Variable
Overall bit rate : 7 862 kb/s

NOAH

Video
ID : 1
Format : AVC
Format/Info : Advanced Video
Duration : 2 h 24 min
Bit rate mode : Variable
Bit rate : 7 478 kb/s
Maximum bit rate : 18.0 Mb/s
Width : 1 920 pixels
Height : 1 080 pixels
Display aspect ratio : 16:9
Frame rate mode : Constant
Frame rate : 29.970 (30000/1001) FPS
Color space : YUV
Chroma subsampling : 4:2:0
Bit depth : 8 bits
Scan type : Progressive
Bits/(Pixel*Frame) : 0.120
Stream size : 7.54 GiB (95%)
Default : Yes
Forced : No
Color range : Limited
Color primaries : BT.709
Transfer characteristics : BT.709
Matrix coefficients : BT.709

NOAH

Audio
ID : 2
Format : AAC LC
Format/Info : Advanced Audio
Codec ID : A_AAC-2
Duration : 2 h 24 min
Bit rate : 384 kb/s
Channel(s) : 2 channels
Channel layout : L R
Sampling rate : 48.0 kHz
Frame rate : 46.875 FPS (1024 SPF)
Compression mode : Lossy
Stream size : 394 MiB (5%)
Default : Yes
Forced : No

Complete name : NOAH.2021.06.30.Up.To.Emotion.2021.JAPANESE.WEB.h264-LATE.mkv
Format : Matroska
Format version : Version 4
File size : 1.62 GiB
Duration : 2 h 24 min
Overall bit rate mode : Variable
Overall bit rate : 1 606 kb/s

NOAH

Video
ID : 1
Format : AVC
Format/Info : Advanced Video
Duration : 2 h 24 min
Bit rate mode : Variable
Bit rate : 1 478 kb/s
Maximum bit rate : 4 000 kb/s
Width : 960 pixels
Height : 540 pixels
Display aspect ratio : 16:9
Frame rate mode : Constant
Frame rate : 29.970 (30000/1001) FPS
Color space : YUV
Chroma subsampling : 4:2:0
Bit depth : 8 bits
Scan type : Progressive
Bits/(Pixel*Frame) : 0.095
Stream size : 1.49 GiB (92%)
Default : Yes
Forced : No
Color range : Limited
Color primaries : BT.709
Transfer characteristics : BT.709
Matrix coefficients : BT.709

NOAH

Audio
ID : 2
Format : AAC LC
Format/Info : Advanced Audio
Codec ID : A_AAC-2
Duration : 2 h 24 min
Bit rate : 125 kb/s
Channel(s) : 2 channels
Channel layout : L R
Sampling rate : 48.0 kHz
Frame rate : 46.875 FPS (1024 SPF)
Compression mode : Lossy
Stream size : 129 MiB (8%)
Default : Yes
Forced : No

NOAH

Complete name : NOAH.2021.06.30.Up.To.Emotion.2021.JAPANESE.720p.WEB.h264-LATE.mkv
Format : Matroska
Format version : Version 4
File size : 3.37 GiB
Duration : 2 h 24 min
Overall bit rate mode : Variable
Overall bit rate : 3 341 kb/s

Video
ID : 1
Format : AVC
Duration : 2 h 24 min
Bit rate mode : Variable
Bit rate : 3 149 kb/s
Maximum bit rate : 8 000 kb/s
Width : 1 280 pixels
Height : 720 pixels
Display aspect ratio : 16:9
Frame rate mode : Constant
Frame rate : 29.970 (30000/1001) FPS
Color space : YUV
Chroma subsampling : 4:2:0
Bit depth : 8 bits
Scan type : Progressive
Bits/(Pixel*Frame) : 0.114
Stream size : 3.18 GiB (94%)
Default : Yes
Forced : No
Color range : Limited
Color primaries : BT.709
Transfer characteristics : BT.709
Matrix coefficients : BT.709

NOAH

Audio
ID : 2
Format : AAC LC
Format/Info : Advanced Audio
Codec ID : A_AAC-2
Duration : 2 h 24 min
Bit rate : 192 kb/s
Channel(s) : 2 channels
Channel layout : L R
Sampling rate : 48.0 kHz
Frame rate : 46.875 FPS (1024 SPF)
Compression mode : Lossy
Stream size : 196 MiB (6%)
Default : Yes
Forced : No

Complete name : NOAH.2021.06.30.Up.To.Emotion.2021.JAPANESE.1080p.WEB.h264-LATE.mkv
Format : Matroska
Format version : Version 4
File size : 7.93 GiB
Duration : 2 h 24 min
Overall bit rate mode : Variable
Overall bit rate : 7 862 kb/s

NOAH

Video
ID : 1
Format : AVC
Format/Info : Advanced Video
Duration : 2 h 24 min
Bit rate mode : Variable
Bit rate : 7 478 kb/s
Maximum bit rate : 18.0 Mb/s
Width : 1 920 pixels
Height : 1 080 pixels
Display aspect ratio : 16:9
Frame rate mode : Constant
Frame rate : 29.970 (30000/1001) FPS
Color space : YUV
Chroma subsampling : 4:2:0
Bit depth : 8 bits
Scan type : Progressive
Bits/(Pixel*Frame) : 0.120
Stream size : 7.54 GiB (95%)
Default : Yes
Forced : No
Color range : Limited
Color primaries : BT.709
Transfer characteristics : BT.709
Matrix coefficients : BT.709

NOAH

Audio
ID : 2
Format : AAC LC
Format/Info : Advanced Audio
Codec ID : A_AAC-2
Duration : 2 h 24 min
Bit rate : 384 kb/s
Channel(s) : 2 channels
Channel layout : L R
Sampling rate : 48.0 kHz
Frame rate : 46.875 FPS (1024 SPF)
Compression mode : Lossy
Stream size : 394 MiB (5%)
Default : Yes
Forced : No

Complete name : NOAH.2021.06.30.Up.To.Emotion.2021.JAPANESE.WEB.h264-LATE.mkv
Format : Matroska
Format version : Version 4
File size : 1.62 GiB
Duration : 2 h 24 min
Overall bit rate mode : Variable
Overall bit rate : 1 606 kb/s

NOAH

Video
ID : 1
Format : AVC
Format/Info : Advanced Video
Duration : 2 h 24 min
Bit rate mode : Variable
Bit rate : 1 478 kb/s
Maximum bit rate : 4 000 kb/s
Width : 960 pixels
Height : 540 pixels
Display aspect ratio : 16:9
Frame rate mode : Constant
Frame rate : 29.970 (30000/1001) FPS
Color space : YUV
Chroma subsampling : 4:2:0
Bit depth : 8 bits
Scan type : Progressive
Bits/(Pixel*Frame) : 0.095
Stream size : 1.49 GiB (92%)
Default : Yes
Forced : No
Color range : Limited
Color primaries : BT.709
Transfer characteristics : BT.709
Matrix coefficients : BT.709

NOAH

Audio
ID : 2
Format : AAC LC
Format/Info : Advanced Audio
Codec ID : A_AAC-2
Duration : 2 h 24 min
Bit rate : 125 kb/s
Channel(s) : 2 channels
Channel layout : L R
Sampling rate : 48.0 kHz
Frame rate : 46.875 FPS (1024 SPF)
Compression mode : Lossy
Stream size : 129 MiB (8%)
Default : Yes
Forced : No

NOAH

Complete name : NOAH.2021.06.30.Up.To.Emotion.2021.JAPANESE.720p.WEB.h264-LATE.mkv
Format : Matroska
Format version : Version 4
File size : 3.37 GiB
Duration : 2 h 24 min
Overall bit rate mode : Variable
Overall bit rate : 3 341 kb/s

Video
ID : 1
Format : AVC
Duration : 2 h 24 min
Bit rate mode : Variable
Bit rate : 3 149 kb/s
Maximum bit rate : 8 000 kb/s
Width : 1 280 pixels
Height : 720 pixels
Display aspect ratio : 16:9
Frame rate mode : Constant
Frame rate : 29.970 (30000/1001) FPS
Color space : YUV
Chroma subsampling : 4:2:0
Bit depth : 8 bits
Scan type : Progressive
Bits/(Pixel*Frame) : 0.114
Stream size : 3.18 GiB (94%)
Default : Yes
Forced : No
Color range : Limited
Color primaries : BT.709
Transfer characteristics : BT.709
Matrix coefficients : BT.709

NOAH

Audio
ID : 2
Format : AAC LC
Format/Info : Advanced Audio
Codec ID : A_AAC-2
Duration : 2 h 24 min
Bit rate : 192 kb/s
Channel(s) : 2 channels
Channel layout : L R
Sampling rate : 48.0 kHz
Frame rate : 46.875 FPS (1024 SPF)
Compression mode : Lossy
Stream size : 196 MiB (6%)
Default : Yes
Forced : No

Complete name : NOAH.2021.06.30.Up.To.Emotion.2021.JAPANESE.1080p.WEB.h264-LATE.mkv
Format : Matroska
Format version : Version 4
File size : 7.93 GiB
Duration : 2 h 24 min
Overall bit rate mode : Variable
Overall bit rate : 7 862 kb/s

NOAH

Video
ID : 1
Format : AVC
Format/Info : Advanced Video
Duration : 2 h 24 min
Bit rate mode : Variable
Bit rate : 7 478 kb/s
Maximum bit rate : 18.0 Mb/s
Width : 1 920 pixels
Height : 1 080 pixels
Display aspect ratio : 16:9
Frame rate mode : Constant
Frame rate : 29.970 (30000/1001) FPS
Color space : YUV
Chroma subsampling : 4:2:0
Bit depth : 8 bits
Scan type : Progressive
Bits/(Pixel*Frame) : 0.120
Stream size : 7.54 GiB (95%)
Default : Yes
Forced : No
Color range : Limited
Color primaries : BT.709
Transfer characteristics : BT.709
Matrix coefficients : BT.709

NOAH

Audio
ID : 2
Format : AAC LC
Format/Info : Advanced Audio
Codec ID : A_AAC-2
Duration : 2 h 24 min
Bit rate : 384 kb/s
Channel(s) : 2 channels
Channel layout : L R
Sampling rate : 48.0 kHz
Frame rate : 46.875 FPS (1024 SPF)
Compression mode : Lossy
Stream size : 394 MiB (5%)
Default : Yes
Forced : No

Complete name : NOAH.2021.06.30.Up.To.Emotion.2021.JAPANESE.WEB.h264-LATE.mkv
Format : Matroska
Format version : Version 4
File size : 1.62 GiB
Duration : 2 h 24 min
Overall bit rate mode : Variable
Overall bit rate : 1 606 kb/s

NOAH

Video
ID : 1
Format : AVC
Format/Info : Advanced Video
Duration : 2 h 24 min
Bit rate mode : Variable
Bit rate : 1 478 kb/s
Maximum bit rate : 4 000 kb/s
Width : 960 pixels
Height : 540 pixels
Display aspect ratio : 16:9
Frame rate mode : Constant
Frame rate : 29.970 (30000/1001) FPS
Color space : YUV
Chroma subsampling : 4:2:0
Bit depth : 8 bits
Scan type : Progressive
Bits/(Pixel*Frame) : 0.095
Stream size : 1.49 GiB (92%)
Default : Yes
Forced : No
Color range : Limited
Color primaries : BT.709
Transfer characteristics : BT.709
Matrix coefficients : BT.709

NOAH

Audio
ID : 2
Format : AAC LC
Format/Info : Advanced Audio
Codec ID : A_AAC-2
Duration : 2 h 24 min
Bit rate : 125 kb/s
Channel(s) : 2 channels
Channel layout : L R
Sampling rate : 48.0 kHz
Frame rate : 46.875 FPS (1024 SPF)
Compression mode : Lossy
Stream size : 129 MiB (8%)
Default : Yes
Forced : No

NOAH

Complete name : NOAH.2021.06.30.Up.To.Emotion.2021.JAPANESE.720p.WEB.h264-LATE.mkv
Format : Matroska
Format version : Version 4
File size : 3.37 GiB
Duration : 2 h 24 min
Overall bit rate mode : Variable
Overall bit rate : 3 341 kb/s

Video
ID : 1
Format : AVC
Duration : 2 h 24 min
Bit rate mode : Variable
Bit rate : 3 149 kb/s
Maximum bit rate : 8 000 kb/s
Width : 1 280 pixels
Height : 720 pixels
Display aspect ratio : 16:9
Frame rate mode : Constant
Frame rate : 29.970 (30000/1001) FPS
Color space : YUV
Chroma subsampling : 4:2:0
Bit depth : 8 bits
Scan type : Progressive
Bits/(Pixel*Frame) : 0.114
Stream size : 3.18 GiB (94%)
Default : Yes
Forced : No
Color range : Limited
Color primaries : BT.709
Transfer characteristics : BT.709
Matrix coefficients : BT.709

NOAH

Audio
ID : 2
Format : AAC LC
Format/Info : Advanced Audio
Codec ID : A_AAC-2
Duration : 2 h 24 min
Bit rate : 192 kb/s
Channel(s) : 2 channels
Channel layout : L R
Sampling rate : 48.0 kHz
Frame rate : 46.875 FPS (1024 SPF)
Compression mode : Lossy
Stream size : 196 MiB (6%)
Default : Yes
Forced : No

Complete name : NOAH.2021.06.30.Up.To.Emotion.2021.JAPANESE.1080p.WEB.h264-LATE.mkv
Format : Matroska
Format version : Version 4
File size : 7.93 GiB
Duration : 2 h 24 min
Overall bit rate mode : Variable
Overall bit rate : 7 862 kb/s

NOAH

Video
ID : 1
Format : AVC
Format/Info : Advanced Video
Duration : 2 h 24 min
Bit rate mode : Variable
Bit rate : 7 478 kb/s
Maximum bit rate : 18.0 Mb/s
Width : 1 920 pixels
Height : 1 080 pixels
Display aspect ratio : 16:9
Frame rate mode : Constant
Frame rate : 29.970 (30000/1001) FPS
Color space : YUV
Chroma subsampling : 4:2:0
Bit depth : 8 bits
Scan type : Progressive
Bits/(Pixel*Frame) : 0.120
Stream size : 7.54 GiB (95%)
Default : Yes
Forced : No
Color range : Limited
Color primaries : BT.709
Transfer characteristics : BT.709
Matrix coefficients : BT.709

NOAH

Audio
ID : 2
Format : AAC LC
Format/Info : Advanced Audio
Codec ID : A_AAC-2
Duration : 2 h 24 min
Bit rate : 384 kb/s
Channel(s) : 2 channels
Channel layout : L R
Sampling rate : 48.0 kHz
Frame rate : 46.875 FPS (1024 SPF)
Compression mode : Lossy
Stream size : 394 MiB (5%)
Default : Yes
Forced : No

Complete name : NOAH.2021.06.30.Up.To.Emotion.2021.JAPANESE.WEB.h264-LATE.mkv
Format : Matroska
Format version : Version 4
File size : 1.62 GiB
Duration : 2 h 24 min
Overall bit rate mode : Variable
Overall bit rate : 1 606 kb/s

NOAH

Video
ID : 1
Format : AVC
Format/Info : Advanced Video
Duration : 2 h 24 min
Bit rate mode : Variable
Bit rate : 1 478 kb/s
Maximum bit rate : 4 000 kb/s
Width : 960 pixels
Height : 540 pixels
Display aspect ratio : 16:9
Frame rate mode : Constant
Frame rate : 29.970 (30000/1001) FPS
Color space : YUV
Chroma subsampling : 4:2:0
Bit depth : 8 bits
Scan type : Progressive
Bits/(Pixel*Frame) : 0.095
Stream size : 1.49 GiB (92%)
Default : Yes
Forced : No
Color range : Limited
Color primaries : BT.709
Transfer characteristics : BT.709
Matrix coefficients : BT.709

NOAH

Audio
ID : 2
Format : AAC LC
Format/Info : Advanced Audio
Codec ID : A_AAC-2
Duration : 2 h 24 min
Bit rate : 125 kb/s
Channel(s) : 2 channels
Channel layout : L R
Sampling rate : 48.0 kHz
Frame rate : 46.875 FPS (1024 SPF)
Compression mode : Lossy
Stream size : 129 MiB (8%)
Default : Yes
Forced : No

NOAH

Complete name : NOAH.2021.06.30.Up.To.Emotion.2021.JAPANESE.720p.WEB.h264-LATE.mkv
Format : Matroska
Format version : Version 4
File size : 3.37 GiB
Duration : 2 h 24 min
Overall bit rate mode : Variable
Overall bit rate : 3 341 kb/s

Video
ID : 1
Format : AVC
Duration : 2 h 24 min
Bit rate mode : Variable
Bit rate : 3 149 kb/s
Maximum bit rate : 8 000 kb/s
Width : 1 280 pixels
Height : 720 pixels
Display aspect ratio : 16:9
Frame rate mode : Constant
Frame rate : 29.970 (30000/1001) FPS
Color space : YUV
Chroma subsampling : 4:2:0
Bit depth : 8 bits
Scan type : Progressive
Bits/(Pixel*Frame) : 0.114
Stream size : 3.18 GiB (94%)
Default : Yes
Forced : No
Color range : Limited
Color primaries : BT.709
Transfer characteristics : BT.709
Matrix coefficients : BT.709

NOAH

Audio
ID : 2
Format : AAC LC
Format/Info : Advanced Audio
Codec ID : A_AAC-2
Duration : 2 h 24 min
Bit rate : 192 kb/s
Channel(s) : 2 channels
Channel layout : L R
Sampling rate : 48.0 kHz
Frame rate : 46.875 FPS (1024 SPF)
Compression mode : Lossy
Stream size : 196 MiB (6%)
Default : Yes
Forced : No

Complete name : NOAH.2021.06.30.Up.To.Emotion.2021.JAPANESE.1080p.WEB.h264-LATE.mkv
Format : Matroska
Format version : Version 4
File size : 7.93 GiB
Duration : 2 h 24 min
Overall bit rate mode : Variable
Overall bit rate : 7 862 kb/s

NOAH

Video
ID : 1
Format : AVC
Format/Info : Advanced Video
Duration : 2 h 24 min
Bit rate mode : Variable
Bit rate : 7 478 kb/s
Maximum bit rate : 18.0 Mb/s
Width : 1 920 pixels
Height : 1 080 pixels
Display aspect ratio : 16:9
Frame rate mode : Constant
Frame rate : 29.970 (30000/1001) FPS
Color space : YUV
Chroma subsampling : 4:2:0
Bit depth : 8 bits
Scan type : Progressive
Bits/(Pixel*Frame) : 0.120
Stream size : 7.54 GiB (95%)
Default : Yes
Forced : No
Color range : Limited
Color primaries : BT.709
Transfer characteristics : BT.709
Matrix coefficients : BT.709

NOAH

Audio
ID : 2
Format : AAC LC
Format/Info : Advanced Audio
Codec ID : A_AAC-2
Duration : 2 h 24 min
Bit rate : 384 kb/s
Channel(s) : 2 channels
Channel layout : L R
Sampling rate : 48.0 kHz
Frame rate : 46.875 FPS (1024 SPF)
Compression mode : Lossy
Stream size : 394 MiB (5%)
Default : Yes
Forced : No

Complete name : NOAH.2021.06.30.Up.To.Emotion.2021.JAPANESE.WEB.h264-LATE.mkv
Format : Matroska
Format version : Version 4
File size : 1.62 GiB
Duration : 2 h 24 min
Overall bit rate mode : Variable
Overall bit rate : 1 606 kb/s

NOAH

Video
ID : 1
Format : AVC
Format/Info : Advanced Video
Duration : 2 h 24 min
Bit rate mode : Variable
Bit rate : 1 478 kb/s
Maximum bit rate : 4 000 kb/s
Width : 960 pixels
Height : 540 pixels
Display aspect ratio : 16:9
Frame rate mode : Constant
Frame rate : 29.970 (30000/1001) FPS
Color space : YUV
Chroma subsampling : 4:2:0
Bit depth : 8 bits
Scan type : Progressive
Bits/(Pixel*Frame) : 0.095
Stream size : 1.49 GiB (92%)
Default : Yes
Forced : No
Color range : Limited
Color primaries : BT.709
Transfer characteristics : BT.709
Matrix coefficients : BT.709

NOAH

Audio
ID : 2
Format : AAC LC
Format/Info : Advanced Audio
Codec ID : A_AAC-2
Duration : 2 h 24 min
Bit rate : 125 kb/s
Channel(s) : 2 channels
Channel layout : L R
Sampling rate : 48.0 kHz
Frame rate : 46.875 FPS (1024 SPF)
Compression mode : Lossy
Stream size : 129 MiB (8%)
Default : Yes
Forced : No

NOAH

Complete name : NOAH.2021.06.30.Up.To.Emotion.2021.JAPANESE.720p.WEB.h264-LATE.mkv
Format : Matroska
Format version : Version 4
File size : 3.37 GiB
Duration : 2 h 24 min
Overall bit rate mode : Variable
Overall bit rate : 3 341 kb/s

Video
ID : 1
Format : AVC
Duration : 2 h 24 min
Bit rate mode : Variable
Bit rate : 3 149 kb/s
Maximum bit rate : 8 000 kb/s
Width : 1 280 pixels
Height : 720 pixels
Display aspect ratio : 16:9
Frame rate mode : Constant
Frame rate : 29.970 (30000/1001) FPS
Color space : YUV
Chroma subsampling : 4:2:0
Bit depth : 8 bits
Scan type : Progressive
Bits/(Pixel*Frame) : 0.114
Stream size : 3.18 GiB (94%)
Default : Yes
Forced : No
Color range : Limited
Color primaries : BT.709
Transfer characteristics : BT.709
Matrix coefficients : BT.709

NOAH

Audio
ID : 2
Format : AAC LC
Format/Info : Advanced Audio
Codec ID : A_AAC-2
Duration : 2 h 24 min
Bit rate : 192 kb/s
Channel(s) : 2 channels
Channel layout : L R
Sampling rate : 48.0 kHz
Frame rate : 46.875 FPS (1024 SPF)
Compression mode : Lossy
Stream size : 196 MiB (6%)
Default : Yes
Forced : No

Complete name : NOAH.2021.06.30.Up.To.Emotion.2021.JAPANESE.1080p.WEB.h264-LATE.mkv
Format : Matroska
Format version : Version 4
File size : 7.93 GiB
Duration : 2 h 24 min
Overall bit rate mode : Variable
Overall bit rate : 7 862 kb/s

NOAH

Video
ID : 1
Format : AVC
Format/Info : Advanced Video
Duration : 2 h 24 min
Bit rate mode : Variable
Bit rate : 7 478 kb/s
Maximum bit rate : 18.0 Mb/s
Width : 1 920 pixels
Height : 1 080 pixels
Display aspect ratio : 16:9
Frame rate mode : Constant
Frame rate : 29.970 (30000/1001) FPS
Color space : YUV
Chroma subsampling : 4:2:0
Bit depth : 8 bits
Scan type : Progressive
Bits/(Pixel*Frame) : 0.120
Stream size : 7.54 GiB (95%)
Default : Yes
Forced : No
Color range : Limited
Color primaries : BT.709
Transfer characteristics : BT.709
Matrix coefficients : BT.709

NOAH

Audio
ID : 2
Format : AAC LC
Format/Info : Advanced Audio
Codec ID : A_AAC-2
Duration : 2 h 24 min
Bit rate : 384 kb/s
Channel(s) : 2 channels
Channel layout : L R
Sampling rate : 48.0 kHz
Frame rate : 46.875 FPS (1024 SPF)
Compression mode : Lossy
Stream size : 394 MiB (5%)
Default : Yes
Forced : No

Complete name : NOAH.2021.06.30.Up.To.Emotion.2021.JAPANESE.WEB.h264-LATE.mkv
Format : Matroska
Format version : Version 4
File size : 1.62 GiB
Duration : 2 h 24 min
Overall bit rate mode : Variable
Overall bit rate : 1 606 kb/s

NOAH

Video
ID : 1
Format : AVC
Format/Info : Advanced Video
Duration : 2 h 24 min
Bit rate mode : Variable
Bit rate : 1 478 kb/s
Maximum bit rate : 4 000 kb/s
Width : 960 pixels
Height : 540 pixels
Display aspect ratio : 16:9
Frame rate mode : Constant
Frame rate : 29.970 (30000/1001) FPS
Color space : YUV
Chroma subsampling : 4:2:0
Bit depth : 8 bits
Scan type : Progressive
Bits/(Pixel*Frame) : 0.095
Stream size : 1.49 GiB (92%)
Default : Yes
Forced : No
Color range : Limited
Color primaries : BT.709
Transfer characteristics : BT.709
Matrix coefficients : BT.709

NOAH

Audio
ID : 2
Format : AAC LC
Format/Info : Advanced Audio
Codec ID : A_AAC-2
Duration : 2 h 24 min
Bit rate : 125 kb/s
Channel(s) : 2 channels
Channel layout : L R
Sampling rate : 48.0 kHz
Frame rate : 46.875 FPS (1024 SPF)
Compression mode : Lossy
Stream size : 129 MiB (8%)
Default : Yes
Forced : No

NOAH

 

[collapse]

 

 

https://dx-tv.com/

Leave a Reply

Your email address will not be published. Required fields are marked *

This site uses Akismet to reduce spam. Learn how your comment data is processed.