NOAH The Ovation 2021 05 03 Day 2 Japan

NOAH The Ovation 2021 05 03 Day 2 Japan DX-TV

NOAH The Ovation 2021

 Watch NOAH The Ovation 2021

 

 

 

Download Links with High Speed


 

Dopapk

 

 

Show Links

 

http://shrt10.com/yJWUO

 

[collapse]

 

 

Nitroflare

 

 

Show Links

 

http://shrt10.com/7Vb9ml7X

 

[collapse]

 

 

Rapidgator

 

 

Show Links

 

http://shrt10.com/DY5LrqVdL

 

[collapse]

 

 

Uploaded

 

 

Show Links

 

http://shrt10.com/2V5UEda

 

[collapse]

 

 

Watch online

 

Server 1

 

 

 

 

NOAH The Ovation 2021

 

 

 

 

Server-2

 

 

 

 

watch now

 

 

 

|Server-3

 

 

 

 

watch now

 

 

Uploaded By Site DX-TV.com

 

 

Show Info This Show

 

 

Complete name : NOAH.2021.05.03.The.Ovation.2021.Day.2.JAPANESE.WEB.h264-LATE.mkv
Format : Matroska
Format version : Version 4
File size : 2.11 GiB
Duration : 2 h 38 min
Overall bit rate : 1 914 kb/s

NOAH The Ovation 2021

Video
ID : 1
Format : AVC
Format/Info : Advanced Video
Duration : 2 h 38 min
Bit rate : 1 816 kb/s
Width : 960 pixels
Height : 540 pixels
Display aspect ratio : 16:9
Frame rate mode : Constant
Frame rate : 30.000 FPS
Color space : YUV
Chroma subsampling : 4:2:0
Bit depth : 8 bits
Scan type : Progressive
Bits/(Pixel*Frame) : 0.117
Stream size : 2.01 GiB (95%)
Default : Yes
Forced : No
Color range : Limited
Color primaries : BT.601 PAL
Transfer characteristics : BT.601
Matrix coefficients : BT.470 System B/G

Audio
ID : 2
Format : AAC LC
Format/Info : Advanced Audio
Codec ID : A_AAC-2
Duration : 2 h 38 min
Bit rate : 96.0 kb/s
Channel(s) : 2 channels
Channel layout : L R
Sampling rate : 44.1 kHz
Frame rate : 43.066 FPS (1024 SPF)
Compression mode : Lossy
Stream size : 109 MiB (5%)
Language : English
Default : Yes
Forced : No

Audio
ID : 2
Format : AAC LC
Format/Info : Advanced Audio
Codec ID : A_AAC-2
Duration : 2 h 38 min
Bit rate : 96.0 kb/s
Channel(s) : 2 channels
Channel layout : L R
Sampling rate : 44.1 kHz
Frame rate : 43.066 FPS (1024 SPF)
Compression mode : Lossy
Stream size : 109 MiB (5%)
Language : English
Default : Yes
Forced : No

NOAH The Ovation

Audio
ID : 2
Format : AAC LC
Format/Info : Advanced Audio
Codec ID : A_AAC-2
Duration : 2 h 38 min
Bit rate : 96.0 kb/s
Channel(s) : 2 channels
Channel layout : L R
Sampling rate : 44.1 kHz
Frame rate : 43.066 FPS (1024 SPF)
Compression mode : Lossy
Stream size : 109 MiB (5%)
Language : English
Default : Yes
Forced : No

Audio
ID : 2
Format : AAC LC
Format/Info : Advanced Audio
Codec ID : A_AAC-2
Duration : 2 h 38 min
Bit rate : 96.0 kb/s
Channel(s) : 2 channels
Channel layout : L R
Sampling rate : 44.1 kHz
Frame rate : 43.066 FPS (1024 SPF)
Compression mode : Lossy
Stream size : 109 MiB (5%)
Language : English
Default : Yes
Forced : No

NOAH The Ovation

Audio
ID : 2
Format : AAC LC
Format/Info : Advanced Audio
Codec ID : A_AAC-2
Duration : 2 h 38 min
Bit rate : 96.0 kb/s
Channel(s) : 2 channels
Channel layout : L R
Sampling rate : 44.1 kHz
Frame rate : 43.066 FPS (1024 SPF)
Compression mode : Lossy
Stream size : 109 MiB (5%)
Language : English
Default : Yes
Forced : No

NOAH The Ovation

 

[collapse]

 

 

https://dx-tv.com/