NOAH the Glory 2021 04 29 English Online Replay

NOAH the Glory 2021 04 29 English Online Replay DX-TV

NOAH the Glory 2021

 NOAH the Glory 2021

 

 

 

Download Links with High Speed


 

Dopapk

 

 

Show Links

 

http://shrt10.com/xTvCqGHU

 

[collapse]

 

 

Nitroflare

 

 

Show Links

 

http://shrt10.com/acKOV

 

[collapse]

 

 

Rapidgator

 

 

Show Links

 

http://shrt10.com/F65Ef0mf

 

[collapse]

 

 

Uploaded

 

 

Show Links

 

http://shrt10.com/2e8CG

 

[collapse]

 

 

Watch online

 

Server 1

 

 

 

 

NOAH the Glory 2021

 

 

 

 

Server-2

 

 

 

 

watch now

 

 

 

|Server-3

 

 

 

 

watch now

 

 

Uploaded By Site DX-TV.com

 

 

Show Info This Show

 

 

Complete name : NOAH.2021.04.29.NOAH.the.Glory.2021.ENGLISH.WEB.h264-LATE.mkv
Format : Matroska
Format version : Version 4
File size : 2.56 GiB
Duration : 3 h 11 min
Overall bit rate : 1 921 kb/s

NOAH the Glory 2021

Video
ID : 1
Format : AVC
Format/Info : Advanced Video Co
Codec ID : V_MPEG4/ISO/AVC
Duration : 3 h 11 min
Bit rate : 1 822 kb/s
Width : 960 pixels
Height : 540 pixels
Display aspect ratio : 16:9
Frame rate mode : Constant
Frame rate : 30.000 FPS
Color space : YUV
Chroma subsampling : 4:2:0
Bit depth : 8 bits
Scan type : Progressive
Bits/(Pixel*Frame) : 0.117
Stream size : 2.43 GiB (95%)
Default : Yes
Forced : No
Color range : Limited
Color primaries : BT.601 PAL
Transfer characteristics : BT.601
Matrix coefficients : BT.470 System B/G

Audio
ID : 2
Format : AAC LC
Format/Info : Advanced Audio
Codec ID : A_AAC-2
Duration : 3 h 11 min
Bit rate : 96.0 kb/s
Channel(s) : 2 channels
Channel layout : L R
Sampling rate : 44.1 kHz
Frame rate : 43.066 FPS 
Compression mode : Lossy
Stream size : 131 MiB (5%)
Language : English
Default : Yes
Forced : No

NOAH the Glory 2021

Audio
ID : 2
Format : AAC LC
Format/Info : Advanced Audio
Codec ID : A_AAC-2
Duration : 3 h 11 min
Bit rate : 96.0 kb/s
Channel(s) : 2 channels
Channel layout : L R
Sampling rate : 44.1 kHz
Frame rate : 43.066 FPS 
Compression mode : Lossy
Stream size : 131 MiB (5%)
Language : English
Default : Yes
Forced : No

 

Audio
ID : 2
Format : AAC LC
Format/Info : Advanced Audio
Codec ID : A_AAC-2
Duration : 3 h 11 min
Bit rate : 96.0 kb/s
Channel(s) : 2 channels
Channel layout : L R
Sampling rate : 44.1 kHz
Frame rate : 43.066 FPS 
Compression mode : Lossy
Stream size : 131 MiB (5%)
Language : English
Default : Yes
Forced : No

NOAH the Glory 2021

 

Audio
ID : 2
Format : AAC LC
Format/Info : Advanced Audio
Codec ID : A_AAC-2
Duration : 3 h 11 min
Bit rate : 96.0 kb/s
Channel(s) : 2 channels
Channel layout : L R
Sampling rate : 44.1 kHz
Frame rate : 43.066 FPS 
Compression mode : Lossy
Stream size : 131 MiB (5%)
Language : English
Default : Yes
Forced : No

NOAH the Glory 2021

Audio
ID : 2
Format : AAC LC
Format/Info : Advanced Audio
Codec ID : A_AAC-2
Duration : 3 h 11 min
Bit rate : 96.0 kb/s
Channel(s) : 2 channels
Channel layout : L R
Sampling rate : 44.1 kHz
Frame rate : 43.066 FPS 
Compression mode : Lossy
Stream size : 131 MiB (5%)
Language : English
Default : Yes
Forced : No

[collapse]

 

 

https://dx-tv.com/