NOAH Stay Together Muta Fantasia 2020 05 10

Watch NOAH Stay Together Muta Fantasia 2020 05 10 DX-TV

NOAH

NOAH

 

 

NOAH Stay Together Muta Fantasia 2020 05 10

 

 

 

Complete name : 2020.05.10.NOAH.Stay.Together.Muta.Fantasia.(Abema.TV).mp4
Format : MPEG-4
Format profile : Base Media
Codec ID : isom
File size : 2.53 GiB
Duration : 2 h 41 min
Overall bit rate : 2 241 kb/s
application : NOAH

Video
ID : 1
Format : AVC
Codec ID : avc1
Codec ID/Info : NOAH
Duration : 2 h 41 min
Bit rate : 2 036 kb/s
Width : 1 280 pixels
Height : 720 pixels
Display aspect ratio : 16:9
Frame rate mode : NOAH
Frame rate : 60.000 FPS
Color space : YUV
Chroma subsampling : 4:2:0
Bit depth : 8 bits
Scan type : NOAH
Bits/(Pixel*Frame) : 0.037
Stream size : 2.30 GiB (91%)

Audio
ID : 2
Format : AAC LC
Format/Info : NOAH
Codec ID : mp4a-40-2
Duration : 2 h 41 min
Bit rate mode : Constant
Bit rate : 192 kb/s
Channel(s) : 2 channels
Channel layout : NOAH
Sampling rate : 44.1 kHz
Frame rate : 43.066 FPS (1024 SPF)
Compression mode : Lossy
Stream size : 222 MiB (9%)
Title : NOAH
Default : Yes
Alternate group : 1

 

 

 

Watch online

 

 

Server 1

 

 

 

 

watch now

 

 

 

 

Server 2

 

 

 

watch now

 

 

 

NOAH Stay Together Muta Fantasia 2020 05 10

 

 

Uploaded By Site DX-TV.com

 

 

 

Download with premium account Links 

 

 

Keep2Share

 

 

nitroflare.com

 

 

rapidgator.net

 

 

uploadgig.com

 

 

 

dx-tv.com

 

urlfree.net

Leave a Reply

Your email address will not be published. Required fields are marked *

This site uses Akismet to reduce spam. Learn how your comment data is processed.

%d bloggers like this: