NOAH Sanctuary 2021 10 17 Online Replay

NOAH Sanctuary 2021 10 17 1080p Full Show Replay DX-TV

NOAH Sanctuary

 NOAH Sanctuary

 

 

 

Download Links with High Speed
 

 


 

Dopapk

 

 

Show Links

 

 

 

 

Nitroflare

 

 

Show Links

 

 

http://shrt10.com/63LNBo
http://shrt10.com/ZalBUi0I
http://shrt10.com/YMjeQT3

 

 

 

 

Rapidgator

 

 

Show Links

 

 

http://shrt10.com/J6e5W
http://shrt10.com/4hN4dzONm
http://shrt10.com/nHo9N3Gz

 

 

 

 

 

Uploaded
 

 

 

Show Links

 

 

http://shrt10.com/VJRGHsh
http://shrt10.com/os9Y9

 

 

 

 

 

 

 

Watch online

 

Server 1

 

 

 

 

NOAH Sanctuary

 

 

 

 

Server-2

 

 

 

 

watch now

 

 

 

|Server-3

 

 

 

 

watch now

 

 

Uploaded By Site DX-TV.com

 

 

Open Info Show

 

 

Complete name : NOAH.2021.10.17.NOAH.Sanctuary.1080p.WEB.h264-LATE.mkv
Format : Matroska
Format version : Version 4
File size : 6.39 GiB
Duration : 2 h 40 min
Overall bit rate mode : Variable
Overall bit rate : 5 706 kb/s

NOAH Sanctuary

Video
ID : 1
Format : AVC
Duration : 2 h 40 min
Bit rate mode : Variable
Bit rate : 5 322 kb/s
Maximum bit rate : 18.0 Mb/s
Width : 1 920 pixels
Height : 1 080 pixels
Display aspect ratio : 16:9
Frame rate mode : Constant
Frame rate : 29.970 (30000/1001) FPS
Color space : YUV
Chroma subsampling : 4:2:0
Bit depth : 8 bits
Scan type : Progressive
Bits/(Pixel*Frame) : 0.086
Stream size : 5.96 GiB (93%)
Default : Yes
Forced : No
Color range : Limited
Color primaries : BT.709
Transfer characteristics : BT.709
Matrix coefficients : BT.709

NOAH Sanctuary

Audio
ID : 2
Format : AAC LC
Codec ID : A_AAC-2
Duration : 2 h 40 min
Bit rate : 384 kb/s
Channel(s) : 2 channels
Channel layout : L R
Sampling rate : 48.0 kHz
Frame rate : 46.875 FPS (1024 SPF)
Compression mode : Lossy
Delay relative to video : 4 ms
Stream size : 438 MiB (7%)
Default : Yes
Forced : No

Complete name : NOAH.2021.10.17.NOAH.Sanctuary.WEB.h264-LATE.mkv
Format : Matroska
Format version : Version 4
File size : 1.43 GiB
Duration : 2 h 40 min
Overall bit rate mode : Variable
Overall bit rate : 1 274 kb/s

NOAH Sanctuary

Video
ID : 1
Format : AVC
Duration : 2 h 40 min
Bit rate mode : Variable
Bit rate : 1 146 kb/s
Maximum bit rate : 4 000 kb/s
Width : 960 pixels
Height : 540 pixels
Display aspect ratio : 16:9
Frame rate mode : Constant
Frame rate : 29.970 (30000/1001) FPS
Color space : YUV
Chroma subsampling : 4:2:0
Bit depth : 8 bits
Scan type : Progressive
Bits/(Pixel*Frame) : 0.074
Stream size : 1.28 GiB (90%)
Default : Yes
Forced : No
Color range : Limited
Color primaries : BT.709
Transfer characteristics : BT.709
Matrix coefficients : BT.709

NOAH Sanctuary

Audio
ID : 2
Format : AAC LC
Format/Info : Advanced Audio
Codec ID : A_AAC-2
Duration : 2 h 40 min
Bit rate : 125 kb/s
Channel(s) : 2 channels
Channel layout : L R
Sampling rate : 48.0 kHz
Frame rate : 46.875 FPS (1024 SPF)
Compression mode : Lossy
Delay relative to video : 4 ms
Stream size : 144 MiB (10%)
Default : Yes
Forced : No

Complete name : NOAH.2021.10.17.NOAH.Sanctuary.720p.WEB.h264-LATE.mkv
Format : Matroska
Format version : Version 4
File size : 2.86 GiB
Duration : 2 h 40 min
Overall bit rate mode : Variable
Overall bit rate : 2 551 kb/s

Video
ID : 1
Format : AVC
Duration : 2 h 40 min
Bit rate mode : Variable
Bit rate : 2 359 kb/s
Maximum bit rate : 8 000 kb/s
Width : 1 280 pixels
Height : 720 pixels
Display aspect ratio : 16:9
Frame rate mode : Constant
Frame rate : 29.970 (30000/1001) FPS
Color space : YUV
Chroma subsampling : 4:2:0
Bit depth : 8 bits
Scan type : Progressive
Bits/(Pixel*Frame) : 0.085
Stream size : 2.64 GiB (92%)
Default : Yes
Forced : No
Color range : Limited
Color primaries : BT.709
Transfer characteristics : BT.709
Matrix coefficients : BT.709

NOAH Sanctuary

Audio
ID : 2
Format : AAC LC
Format/Info : Advanced Audio
Codec ID : A_AAC-2
Duration : 2 h 40 min
Bit rate : 192 kb/s
Channel(s) : 2 channels
Channel layout : L R
Sampling rate : 48.0 kHz
Frame rate : 46.875 FPS (1024 SPF)
Compression mode : Lossy
Delay relative to video : 4 ms
Stream size : 217 MiB (7%)
Default : Yes
Forced : No

 

 

https://dx-tv.com/

 

 

 

 

 

Leave a Reply

Your email address will not be published. Required fields are marked *

This site uses Akismet to reduce spam. Learn how your comment data is processed.