NOAH Sanctuary 2021 07 27 1080p Online Free Replay DX-TV

NOAH Sanctuary 2021 07 27 1080p Online Free Replay DX-TV

NOAH Sanctuary 2021

 NOAH Sanctuary 2021

 

 

 

Download Links with premium High Speed


 

Dopapk

 

 

Show Links

 

http://shrt10.com/z7Smkh
http://shrt10.com/HTMvxnHJS
http://shrt10.com/Xvs2eDRH

 

[collapse]

 

 

Nitroflare

 

 

Show Links

 

http://shrt10.com/GNPn1O
http://shrt10.com/EjKYD114w
http://shrt10.com/C8dUj3F

 

[collapse]

 

 

Rapidgator

 

 

Show Links

 

http://shrt10.com/Ljxg5bUD6
http://shrt10.com/V6jZvTL
http://shrt10.com/Tpoyh

 

[collapse]

 

 

Uploaded

 

 

Show Links

 

http://shrt10.com/xberr9jd
http://shrt10.com/UJTAPqB6g

 

[collapse]

 

 

Watch online

 

Server 1

 

 

 

 

NOAH Sanctuary 2021

 

 

 

 

Server-2

 

 

 

 

watch now

 

 

 

|Server-3

 

 

 

 

watch now

 

 

Uploaded By Site DX-TV.com

 

 

Show Info This Show

 

NOAH Sanctuary 2021

Complete name : NOAH.2021.07.27.NOAH.Sanctuary.JAPANESE.720p.WEB.h264-LATE.mkv
Format : Matroska
Format version : Version 4
File size : 2.96 GiB
Duration : 2 h 24 min
Overall bit rate mode : Variable
Overall bit rate : 2 934 kb/s

Video
ID : 1
Format : AVC
Format/Info : Advanced Video
Duration : 2 h 24 min
Bit rate mode : Variable
Bit rate : 2 742 kb/s
Maximum bit rate : 8 000 kb/s
Width : 1 280 pixels
Height : 720 pixels
Display aspect ratio : 16:9
Frame rate mode : Constant
Frame rate : 29.970 (30000/1001) FPS
Color space : YUV
Chroma subsampling : 4:2:0
Bit depth : 8 bits
Scan type : Progressive
Bits/(Pixel*Frame) : 0.099
Stream size : 2.76 GiB (93%)
Default : Yes
Forced : No
Color range : Limited
Color primaries : BT.709
Transfer characteristics : BT.709
Matrix coefficients : BT.709

NOAH Sanctuary 2021

Audio
ID : 2
Format : AAC LC
Codec ID : A_AAC-2
Duration : 2 h 24 min
Bit rate : 192 kb/s
Channel(s) : 2 channels
Channel layout : L R
Sampling rate : 48.0 kHz
Frame rate : 46.875 FPS
Compression mode : Lossy
Delay relative to video : 8 ms
Stream size : 195 MiB (6%)
Default : Yes
Forced : No

Complete name : NOAH.2021.07.27.NOAH.Sanctuary.JAPANESE.1080p.WEB.h264-LATE.mkv
Format : Matroska
Format version : Version 4
File size : 6.88 GiB
Duration : 2 h 24 min
Overall bit rate mode : Variable
Overall bit rate : 6 828 kb/s

NOAH Sanctuary 2021

Video
ID : 1
Format : AVC
Duration : 2 h 24 min
Bit rate mode : Variable
Bit rate : 6 444 kb/s
Maximum bit rate : 18.0 Mb/s
Width : 1 920 pixels
Height : 1 080 pixels
Display aspect ratio : 16:9
Frame rate mode : Constant
Frame rate : 29.970 (30000/1001) FPS
Color space : YUV
Chroma subsampling : 4:2:0
Bit depth : 8 bits
Scan type : Progressive
Bits/(Pixel*Frame) : 0.104
Stream size : 6.49 GiB (94%)
Default : Yes
Forced : No
Color range : Limited
Color primaries : BT.709
Transfer characteristics : BT.709
Matrix coefficients : BT.709

NOAH Sanctuary 2021

Audio
ID : 2
Format : AAC LC
Codec ID : A_AAC-2
Duration : 2 h 24 min
Bit rate : 384 kb/s
Channel(s) : 2 channels
Channel layout : L R
Sampling rate : 48.0 kHz
Frame rate : 46.875 FPS
Compression mode : Lossy
Delay relative to video : 8 ms
Stream size : 393 MiB (6%)
Default : Yes
Forced : No

Complete name : NOAH.2021.07.27.NOAH.Sanctuary.JAPANESE.WEB.h264-LATE.mkv
Format : Matroska
Format version : Version 4
File size : 1.45 GiB
Duration : 2 h 24 min
Overall bit rate mode : Variable
Overall bit rate : 1 438 kb/s

NOAH Sanctuary 2021

Video
ID : 1
Format : AVC
Format/Info : Advanced Video
Duration : 2 h 24 min
Bit rate mode : Variable
Bit rate : 1 310 kb/s
Maximum bit rate : 4 000 kb/s
Width : 960 pixels
Height : 540 pixels
Display aspect ratio : 16:9
Frame rate mode : Constant
Frame rate : 29.970 (30000/1001) FPS
Color space : YUV
Chroma subsampling : 4:2:0
Bit depth : 8 bits
Scan type : Progressive
Bits/(Pixel*Frame) : 0.084
Stream size : 1.32 GiB (91%)
Default : Yes
Forced : No
Color range : Limited
Color primaries : BT.709
Transfer characteristics : BT.709
Matrix coefficients : BT.709

NOAH Sanctuary 2021

Audio
ID : 2
Format : AAC LC
Format/Info : Advanced Audio
Codec ID : A_AAC-2
Duration : 2 h 24 min
Bit rate : 125 kb/s
Channel(s) : 2 channels
Channel layout : L R
Sampling rate : 48.0 kHz
Frame rate : 46.875 FPS
Compression mode : Lossy
Delay relative to video : 8 ms
Stream size : 129 MiB (9%)
Default : Yes
Forced : No

NOAH Sanctuary 2021

Complete name : NOAH.2021.07.27.NOAH.Sanctuary.JAPANESE.720p.WEB.h264-LATE.mkv
Format : Matroska
Format version : Version 4
File size : 2.96 GiB
Duration : 2 h 24 min
Overall bit rate mode : Variable
Overall bit rate : 2 934 kb/s

Video
ID : 1
Format : AVC
Format/Info : Advanced Video
Duration : 2 h 24 min
Bit rate mode : Variable
Bit rate : 2 742 kb/s
Maximum bit rate : 8 000 kb/s
Width : 1 280 pixels
Height : 720 pixels
Display aspect ratio : 16:9
Frame rate mode : Constant
Frame rate : 29.970 (30000/1001) FPS
Color space : YUV
Chroma subsampling : 4:2:0
Bit depth : 8 bits
Scan type : Progressive
Bits/(Pixel*Frame) : 0.099
Stream size : 2.76 GiB (93%)
Default : Yes
Forced : No
Color range : Limited
Color primaries : BT.709
Transfer characteristics : BT.709
Matrix coefficients : BT.709

NOAH Sanctuary 2021

Audio
ID : 2
Format : AAC LC
Codec ID : A_AAC-2
Duration : 2 h 24 min
Bit rate : 192 kb/s
Channel(s) : 2 channels
Channel layout : L R
Sampling rate : 48.0 kHz
Frame rate : 46.875 FPS
Compression mode : Lossy
Delay relative to video : 8 ms
Stream size : 195 MiB (6%)
Default : Yes
Forced : No

Complete name : NOAH.2021.07.27.NOAH.Sanctuary.JAPANESE.1080p.WEB.h264-LATE.mkv
Format : Matroska
Format version : Version 4
File size : 6.88 GiB
Duration : 2 h 24 min
Overall bit rate mode : Variable
Overall bit rate : 6 828 kb/s

NOAH Sanctuary 2021

Video
ID : 1
Format : AVC
Duration : 2 h 24 min
Bit rate mode : Variable
Bit rate : 6 444 kb/s
Maximum bit rate : 18.0 Mb/s
Width : 1 920 pixels
Height : 1 080 pixels
Display aspect ratio : 16:9
Frame rate mode : Constant
Frame rate : 29.970 (30000/1001) FPS
Color space : YUV
Chroma subsampling : 4:2:0
Bit depth : 8 bits
Scan type : Progressive
Bits/(Pixel*Frame) : 0.104
Stream size : 6.49 GiB (94%)
Default : Yes
Forced : No
Color range : Limited
Color primaries : BT.709
Transfer characteristics : BT.709
Matrix coefficients : BT.709

NOAH Sanctuary 2021

Audio
ID : 2
Format : AAC LC
Codec ID : A_AAC-2
Duration : 2 h 24 min
Bit rate : 384 kb/s
Channel(s) : 2 channels
Channel layout : L R
Sampling rate : 48.0 kHz
Frame rate : 46.875 FPS
Compression mode : Lossy
Delay relative to video : 8 ms
Stream size : 393 MiB (6%)
Default : Yes
Forced : No

Complete name : NOAH.2021.07.27.NOAH.Sanctuary.JAPANESE.WEB.h264-LATE.mkv
Format : Matroska
Format version : Version 4
File size : 1.45 GiB
Duration : 2 h 24 min
Overall bit rate mode : Variable
Overall bit rate : 1 438 kb/s

NOAH Sanctuary 2021

Video
ID : 1
Format : AVC
Format/Info : Advanced Video
Duration : 2 h 24 min
Bit rate mode : Variable
Bit rate : 1 310 kb/s
Maximum bit rate : 4 000 kb/s
Width : 960 pixels
Height : 540 pixels
Display aspect ratio : 16:9
Frame rate mode : Constant
Frame rate : 29.970 (30000/1001) FPS
Color space : YUV
Chroma subsampling : 4:2:0
Bit depth : 8 bits
Scan type : Progressive
Bits/(Pixel*Frame) : 0.084
Stream size : 1.32 GiB (91%)
Default : Yes
Forced : No
Color range : Limited
Color primaries : BT.709
Transfer characteristics : BT.709
Matrix coefficients : BT.709

NOAH Sanctuary 2021

Audio
ID : 2
Format : AAC LC
Format/Info : Advanced Audio
Codec ID : A_AAC-2
Duration : 2 h 24 min
Bit rate : 125 kb/s
Channel(s) : 2 channels
Channel layout : L R
Sampling rate : 48.0 kHz
Frame rate : 46.875 FPS
Compression mode : Lossy
Delay relative to video : 8 ms
Stream size : 129 MiB (9%)
Default : Yes
Forced : No

NOAH Sanctuary 2021

Complete name : NOAH.2021.07.27.NOAH.Sanctuary.JAPANESE.720p.WEB.h264-LATE.mkv
Format : Matroska
Format version : Version 4
File size : 2.96 GiB
Duration : 2 h 24 min
Overall bit rate mode : Variable
Overall bit rate : 2 934 kb/s

Video
ID : 1
Format : AVC
Format/Info : Advanced Video
Duration : 2 h 24 min
Bit rate mode : Variable
Bit rate : 2 742 kb/s
Maximum bit rate : 8 000 kb/s
Width : 1 280 pixels
Height : 720 pixels
Display aspect ratio : 16:9
Frame rate mode : Constant
Frame rate : 29.970 (30000/1001) FPS
Color space : YUV
Chroma subsampling : 4:2:0
Bit depth : 8 bits
Scan type : Progressive
Bits/(Pixel*Frame) : 0.099
Stream size : 2.76 GiB (93%)
Default : Yes
Forced : No
Color range : Limited
Color primaries : BT.709
Transfer characteristics : BT.709
Matrix coefficients : BT.709

NOAH Sanctuary 2021

Audio
ID : 2
Format : AAC LC
Codec ID : A_AAC-2
Duration : 2 h 24 min
Bit rate : 192 kb/s
Channel(s) : 2 channels
Channel layout : L R
Sampling rate : 48.0 kHz
Frame rate : 46.875 FPS
Compression mode : Lossy
Delay relative to video : 8 ms
Stream size : 195 MiB (6%)
Default : Yes
Forced : No

Complete name : NOAH.2021.07.27.NOAH.Sanctuary.JAPANESE.1080p.WEB.h264-LATE.mkv
Format : Matroska
Format version : Version 4
File size : 6.88 GiB
Duration : 2 h 24 min
Overall bit rate mode : Variable
Overall bit rate : 6 828 kb/s

NOAH Sanctuary 2021

Video
ID : 1
Format : AVC
Duration : 2 h 24 min
Bit rate mode : Variable
Bit rate : 6 444 kb/s
Maximum bit rate : 18.0 Mb/s
Width : 1 920 pixels
Height : 1 080 pixels
Display aspect ratio : 16:9
Frame rate mode : Constant
Frame rate : 29.970 (30000/1001) FPS
Color space : YUV
Chroma subsampling : 4:2:0
Bit depth : 8 bits
Scan type : Progressive
Bits/(Pixel*Frame) : 0.104
Stream size : 6.49 GiB (94%)
Default : Yes
Forced : No
Color range : Limited
Color primaries : BT.709
Transfer characteristics : BT.709
Matrix coefficients : BT.709

NOAH Sanctuary 2021

Audio
ID : 2
Format : AAC LC
Codec ID : A_AAC-2
Duration : 2 h 24 min
Bit rate : 384 kb/s
Channel(s) : 2 channels
Channel layout : L R
Sampling rate : 48.0 kHz
Frame rate : 46.875 FPS
Compression mode : Lossy
Delay relative to video : 8 ms
Stream size : 393 MiB (6%)
Default : Yes
Forced : No

Complete name : NOAH.2021.07.27.NOAH.Sanctuary.JAPANESE.WEB.h264-LATE.mkv
Format : Matroska
Format version : Version 4
File size : 1.45 GiB
Duration : 2 h 24 min
Overall bit rate mode : Variable
Overall bit rate : 1 438 kb/s

NOAH Sanctuary 2021

Video
ID : 1
Format : AVC
Format/Info : Advanced Video
Duration : 2 h 24 min
Bit rate mode : Variable
Bit rate : 1 310 kb/s
Maximum bit rate : 4 000 kb/s
Width : 960 pixels
Height : 540 pixels
Display aspect ratio : 16:9
Frame rate mode : Constant
Frame rate : 29.970 (30000/1001) FPS
Color space : YUV
Chroma subsampling : 4:2:0
Bit depth : 8 bits
Scan type : Progressive
Bits/(Pixel*Frame) : 0.084
Stream size : 1.32 GiB (91%)
Default : Yes
Forced : No
Color range : Limited
Color primaries : BT.709
Transfer characteristics : BT.709
Matrix coefficients : BT.709

NOAH Sanctuary 2021

Audio
ID : 2
Format : AAC LC
Format/Info : Advanced Audio
Codec ID : A_AAC-2
Duration : 2 h 24 min
Bit rate : 125 kb/s
Channel(s) : 2 channels
Channel layout : L R
Sampling rate : 48.0 kHz
Frame rate : 46.875 FPS
Compression mode : Lossy
Delay relative to video : 8 ms
Stream size : 129 MiB (9%)
Default : Yes
Forced : No

NOAH Sanctuary 2021

Complete name : NOAH.2021.07.27.NOAH.Sanctuary.JAPANESE.720p.WEB.h264-LATE.mkv
Format : Matroska
Format version : Version 4
File size : 2.96 GiB
Duration : 2 h 24 min
Overall bit rate mode : Variable
Overall bit rate : 2 934 kb/s

Video
ID : 1
Format : AVC
Format/Info : Advanced Video
Duration : 2 h 24 min
Bit rate mode : Variable
Bit rate : 2 742 kb/s
Maximum bit rate : 8 000 kb/s
Width : 1 280 pixels
Height : 720 pixels
Display aspect ratio : 16:9
Frame rate mode : Constant
Frame rate : 29.970 (30000/1001) FPS
Color space : YUV
Chroma subsampling : 4:2:0
Bit depth : 8 bits
Scan type : Progressive
Bits/(Pixel*Frame) : 0.099
Stream size : 2.76 GiB (93%)
Default : Yes
Forced : No
Color range : Limited
Color primaries : BT.709
Transfer characteristics : BT.709
Matrix coefficients : BT.709

NOAH Sanctuary 2021

Audio
ID : 2
Format : AAC LC
Codec ID : A_AAC-2
Duration : 2 h 24 min
Bit rate : 192 kb/s
Channel(s) : 2 channels
Channel layout : L R
Sampling rate : 48.0 kHz
Frame rate : 46.875 FPS
Compression mode : Lossy
Delay relative to video : 8 ms
Stream size : 195 MiB (6%)
Default : Yes
Forced : No

Complete name : NOAH.2021.07.27.NOAH.Sanctuary.JAPANESE.1080p.WEB.h264-LATE.mkv
Format : Matroska
Format version : Version 4
File size : 6.88 GiB
Duration : 2 h 24 min
Overall bit rate mode : Variable
Overall bit rate : 6 828 kb/s

NOAH Sanctuary 2021

Video
ID : 1
Format : AVC
Duration : 2 h 24 min
Bit rate mode : Variable
Bit rate : 6 444 kb/s
Maximum bit rate : 18.0 Mb/s
Width : 1 920 pixels
Height : 1 080 pixels
Display aspect ratio : 16:9
Frame rate mode : Constant
Frame rate : 29.970 (30000/1001) FPS
Color space : YUV
Chroma subsampling : 4:2:0
Bit depth : 8 bits
Scan type : Progressive
Bits/(Pixel*Frame) : 0.104
Stream size : 6.49 GiB (94%)
Default : Yes
Forced : No
Color range : Limited
Color primaries : BT.709
Transfer characteristics : BT.709
Matrix coefficients : BT.709

NOAH Sanctuary 2021

Audio
ID : 2
Format : AAC LC
Codec ID : A_AAC-2
Duration : 2 h 24 min
Bit rate : 384 kb/s
Channel(s) : 2 channels
Channel layout : L R
Sampling rate : 48.0 kHz
Frame rate : 46.875 FPS
Compression mode : Lossy
Delay relative to video : 8 ms
Stream size : 393 MiB (6%)
Default : Yes
Forced : No

Complete name : NOAH.2021.07.27.NOAH.Sanctuary.JAPANESE.WEB.h264-LATE.mkv
Format : Matroska
Format version : Version 4
File size : 1.45 GiB
Duration : 2 h 24 min
Overall bit rate mode : Variable
Overall bit rate : 1 438 kb/s

NOAH Sanctuary 2021

Video
ID : 1
Format : AVC
Format/Info : Advanced Video
Duration : 2 h 24 min
Bit rate mode : Variable
Bit rate : 1 310 kb/s
Maximum bit rate : 4 000 kb/s
Width : 960 pixels
Height : 540 pixels
Display aspect ratio : 16:9
Frame rate mode : Constant
Frame rate : 29.970 (30000/1001) FPS
Color space : YUV
Chroma subsampling : 4:2:0
Bit depth : 8 bits
Scan type : Progressive
Bits/(Pixel*Frame) : 0.084
Stream size : 1.32 GiB (91%)
Default : Yes
Forced : No
Color range : Limited
Color primaries : BT.709
Transfer characteristics : BT.709
Matrix coefficients : BT.709

NOAH Sanctuary 2021

Audio
ID : 2
Format : AAC LC
Format/Info : Advanced Audio
Codec ID : A_AAC-2
Duration : 2 h 24 min
Bit rate : 125 kb/s
Channel(s) : 2 channels
Channel layout : L R
Sampling rate : 48.0 kHz
Frame rate : 46.875 FPS
Compression mode : Lossy
Delay relative to video : 8 ms
Stream size : 129 MiB (9%)
Default : Yes
Forced : No

NOAH Sanctuary 2021

Complete name : NOAH.2021.07.27.NOAH.Sanctuary.JAPANESE.720p.WEB.h264-LATE.mkv
Format : Matroska
Format version : Version 4
File size : 2.96 GiB
Duration : 2 h 24 min
Overall bit rate mode : Variable
Overall bit rate : 2 934 kb/s

Video
ID : 1
Format : AVC
Format/Info : Advanced Video
Duration : 2 h 24 min
Bit rate mode : Variable
Bit rate : 2 742 kb/s
Maximum bit rate : 8 000 kb/s
Width : 1 280 pixels
Height : 720 pixels
Display aspect ratio : 16:9
Frame rate mode : Constant
Frame rate : 29.970 (30000/1001) FPS
Color space : YUV
Chroma subsampling : 4:2:0
Bit depth : 8 bits
Scan type : Progressive
Bits/(Pixel*Frame) : 0.099
Stream size : 2.76 GiB (93%)
Default : Yes
Forced : No
Color range : Limited
Color primaries : BT.709
Transfer characteristics : BT.709
Matrix coefficients : BT.709

NOAH Sanctuary 2021

Audio
ID : 2
Format : AAC LC
Codec ID : A_AAC-2
Duration : 2 h 24 min
Bit rate : 192 kb/s
Channel(s) : 2 channels
Channel layout : L R
Sampling rate : 48.0 kHz
Frame rate : 46.875 FPS
Compression mode : Lossy
Delay relative to video : 8 ms
Stream size : 195 MiB (6%)
Default : Yes
Forced : No

Complete name : NOAH.2021.07.27.NOAH.Sanctuary.JAPANESE.1080p.WEB.h264-LATE.mkv
Format : Matroska
Format version : Version 4
File size : 6.88 GiB
Duration : 2 h 24 min
Overall bit rate mode : Variable
Overall bit rate : 6 828 kb/s

NOAH Sanctuary 2021

Video
ID : 1
Format : AVC
Duration : 2 h 24 min
Bit rate mode : Variable
Bit rate : 6 444 kb/s
Maximum bit rate : 18.0 Mb/s
Width : 1 920 pixels
Height : 1 080 pixels
Display aspect ratio : 16:9
Frame rate mode : Constant
Frame rate : 29.970 (30000/1001) FPS
Color space : YUV
Chroma subsampling : 4:2:0
Bit depth : 8 bits
Scan type : Progressive
Bits/(Pixel*Frame) : 0.104
Stream size : 6.49 GiB (94%)
Default : Yes
Forced : No
Color range : Limited
Color primaries : BT.709
Transfer characteristics : BT.709
Matrix coefficients : BT.709

NOAH Sanctuary 2021

Audio
ID : 2
Format : AAC LC
Codec ID : A_AAC-2
Duration : 2 h 24 min
Bit rate : 384 kb/s
Channel(s) : 2 channels
Channel layout : L R
Sampling rate : 48.0 kHz
Frame rate : 46.875 FPS
Compression mode : Lossy
Delay relative to video : 8 ms
Stream size : 393 MiB (6%)
Default : Yes
Forced : No

Complete name : NOAH.2021.07.27.NOAH.Sanctuary.JAPANESE.WEB.h264-LATE.mkv
Format : Matroska
Format version : Version 4
File size : 1.45 GiB
Duration : 2 h 24 min
Overall bit rate mode : Variable
Overall bit rate : 1 438 kb/s

NOAH Sanctuary 2021

Video
ID : 1
Format : AVC
Format/Info : Advanced Video
Duration : 2 h 24 min
Bit rate mode : Variable
Bit rate : 1 310 kb/s
Maximum bit rate : 4 000 kb/s
Width : 960 pixels
Height : 540 pixels
Display aspect ratio : 16:9
Frame rate mode : Constant
Frame rate : 29.970 (30000/1001) FPS
Color space : YUV
Chroma subsampling : 4:2:0
Bit depth : 8 bits
Scan type : Progressive
Bits/(Pixel*Frame) : 0.084
Stream size : 1.32 GiB (91%)
Default : Yes
Forced : No
Color range : Limited
Color primaries : BT.709
Transfer characteristics : BT.709
Matrix coefficients : BT.709

NOAH Sanctuary 2021

Audio
ID : 2
Format : AAC LC
Format/Info : Advanced Audio
Codec ID : A_AAC-2
Duration : 2 h 24 min
Bit rate : 125 kb/s
Channel(s) : 2 channels
Channel layout : L R
Sampling rate : 48.0 kHz
Frame rate : 46.875 FPS
Compression mode : Lossy
Delay relative to video : 8 ms
Stream size : 129 MiB (9%)
Default : Yes
Forced : No

NOAH Sanctuary 2021

Complete name : NOAH.2021.07.27.NOAH.Sanctuary.JAPANESE.720p.WEB.h264-LATE.mkv
Format : Matroska
Format version : Version 4
File size : 2.96 GiB
Duration : 2 h 24 min
Overall bit rate mode : Variable
Overall bit rate : 2 934 kb/s

Video
ID : 1
Format : AVC
Format/Info : Advanced Video
Duration : 2 h 24 min
Bit rate mode : Variable
Bit rate : 2 742 kb/s
Maximum bit rate : 8 000 kb/s
Width : 1 280 pixels
Height : 720 pixels
Display aspect ratio : 16:9
Frame rate mode : Constant
Frame rate : 29.970 (30000/1001) FPS
Color space : YUV
Chroma subsampling : 4:2:0
Bit depth : 8 bits
Scan type : Progressive
Bits/(Pixel*Frame) : 0.099
Stream size : 2.76 GiB (93%)
Default : Yes
Forced : No
Color range : Limited
Color primaries : BT.709
Transfer characteristics : BT.709
Matrix coefficients : BT.709

NOAH Sanctuary 2021

Audio
ID : 2
Format : AAC LC
Codec ID : A_AAC-2
Duration : 2 h 24 min
Bit rate : 192 kb/s
Channel(s) : 2 channels
Channel layout : L R
Sampling rate : 48.0 kHz
Frame rate : 46.875 FPS
Compression mode : Lossy
Delay relative to video : 8 ms
Stream size : 195 MiB (6%)
Default : Yes
Forced : No

Complete name : NOAH.2021.07.27.NOAH.Sanctuary.JAPANESE.1080p.WEB.h264-LATE.mkv
Format : Matroska
Format version : Version 4
File size : 6.88 GiB
Duration : 2 h 24 min
Overall bit rate mode : Variable
Overall bit rate : 6 828 kb/s

NOAH Sanctuary 2021

Video
ID : 1
Format : AVC
Duration : 2 h 24 min
Bit rate mode : Variable
Bit rate : 6 444 kb/s
Maximum bit rate : 18.0 Mb/s
Width : 1 920 pixels
Height : 1 080 pixels
Display aspect ratio : 16:9
Frame rate mode : Constant
Frame rate : 29.970 (30000/1001) FPS
Color space : YUV
Chroma subsampling : 4:2:0
Bit depth : 8 bits
Scan type : Progressive
Bits/(Pixel*Frame) : 0.104
Stream size : 6.49 GiB (94%)
Default : Yes
Forced : No
Color range : Limited
Color primaries : BT.709
Transfer characteristics : BT.709
Matrix coefficients : BT.709

NOAH Sanctuary 2021

Audio
ID : 2
Format : AAC LC
Codec ID : A_AAC-2
Duration : 2 h 24 min
Bit rate : 384 kb/s
Channel(s) : 2 channels
Channel layout : L R
Sampling rate : 48.0 kHz
Frame rate : 46.875 FPS
Compression mode : Lossy
Delay relative to video : 8 ms
Stream size : 393 MiB (6%)
Default : Yes
Forced : No

Complete name : NOAH.2021.07.27.NOAH.Sanctuary.JAPANESE.WEB.h264-LATE.mkv
Format : Matroska
Format version : Version 4
File size : 1.45 GiB
Duration : 2 h 24 min
Overall bit rate mode : Variable
Overall bit rate : 1 438 kb/s

NOAH Sanctuary 2021

Video
ID : 1
Format : AVC
Format/Info : Advanced Video
Duration : 2 h 24 min
Bit rate mode : Variable
Bit rate : 1 310 kb/s
Maximum bit rate : 4 000 kb/s
Width : 960 pixels
Height : 540 pixels
Display aspect ratio : 16:9
Frame rate mode : Constant
Frame rate : 29.970 (30000/1001) FPS
Color space : YUV
Chroma subsampling : 4:2:0
Bit depth : 8 bits
Scan type : Progressive
Bits/(Pixel*Frame) : 0.084
Stream size : 1.32 GiB (91%)
Default : Yes
Forced : No
Color range : Limited
Color primaries : BT.709
Transfer characteristics : BT.709
Matrix coefficients : BT.709

NOAH Sanctuary 2021

Audio
ID : 2
Format : AAC LC
Format/Info : Advanced Audio
Codec ID : A_AAC-2
Duration : 2 h 24 min
Bit rate : 125 kb/s
Channel(s) : 2 channels
Channel layout : L R
Sampling rate : 48.0 kHz
Frame rate : 46.875 FPS
Compression mode : Lossy
Delay relative to video : 8 ms
Stream size : 129 MiB (9%)
Default : Yes
Forced : No

NOAH Sanctuary 2021

Complete name : NOAH.2021.07.27.NOAH.Sanctuary.JAPANESE.720p.WEB.h264-LATE.mkv
Format : Matroska
Format version : Version 4
File size : 2.96 GiB
Duration : 2 h 24 min
Overall bit rate mode : Variable
Overall bit rate : 2 934 kb/s

Video
ID : 1
Format : AVC
Format/Info : Advanced Video
Duration : 2 h 24 min
Bit rate mode : Variable
Bit rate : 2 742 kb/s
Maximum bit rate : 8 000 kb/s
Width : 1 280 pixels
Height : 720 pixels
Display aspect ratio : 16:9
Frame rate mode : Constant
Frame rate : 29.970 (30000/1001) FPS
Color space : YUV
Chroma subsampling : 4:2:0
Bit depth : 8 bits
Scan type : Progressive
Bits/(Pixel*Frame) : 0.099
Stream size : 2.76 GiB (93%)
Default : Yes
Forced : No
Color range : Limited
Color primaries : BT.709
Transfer characteristics : BT.709
Matrix coefficients : BT.709

NOAH Sanctuary 2021

Audio
ID : 2
Format : AAC LC
Codec ID : A_AAC-2
Duration : 2 h 24 min
Bit rate : 192 kb/s
Channel(s) : 2 channels
Channel layout : L R
Sampling rate : 48.0 kHz
Frame rate : 46.875 FPS
Compression mode : Lossy
Delay relative to video : 8 ms
Stream size : 195 MiB (6%)
Default : Yes
Forced : No

Complete name : NOAH.2021.07.27.NOAH.Sanctuary.JAPANESE.1080p.WEB.h264-LATE.mkv
Format : Matroska
Format version : Version 4
File size : 6.88 GiB
Duration : 2 h 24 min
Overall bit rate mode : Variable
Overall bit rate : 6 828 kb/s

NOAH Sanctuary 2021

Video
ID : 1
Format : AVC
Duration : 2 h 24 min
Bit rate mode : Variable
Bit rate : 6 444 kb/s
Maximum bit rate : 18.0 Mb/s
Width : 1 920 pixels
Height : 1 080 pixels
Display aspect ratio : 16:9
Frame rate mode : Constant
Frame rate : 29.970 (30000/1001) FPS
Color space : YUV
Chroma subsampling : 4:2:0
Bit depth : 8 bits
Scan type : Progressive
Bits/(Pixel*Frame) : 0.104
Stream size : 6.49 GiB (94%)
Default : Yes
Forced : No
Color range : Limited
Color primaries : BT.709
Transfer characteristics : BT.709
Matrix coefficients : BT.709

NOAH Sanctuary 2021

Audio
ID : 2
Format : AAC LC
Codec ID : A_AAC-2
Duration : 2 h 24 min
Bit rate : 384 kb/s
Channel(s) : 2 channels
Channel layout : L R
Sampling rate : 48.0 kHz
Frame rate : 46.875 FPS
Compression mode : Lossy
Delay relative to video : 8 ms
Stream size : 393 MiB (6%)
Default : Yes
Forced : No

Complete name : NOAH.2021.07.27.NOAH.Sanctuary.JAPANESE.WEB.h264-LATE.mkv
Format : Matroska
Format version : Version 4
File size : 1.45 GiB
Duration : 2 h 24 min
Overall bit rate mode : Variable
Overall bit rate : 1 438 kb/s

NOAH Sanctuary 2021

Video
ID : 1
Format : AVC
Format/Info : Advanced Video
Duration : 2 h 24 min
Bit rate mode : Variable
Bit rate : 1 310 kb/s
Maximum bit rate : 4 000 kb/s
Width : 960 pixels
Height : 540 pixels
Display aspect ratio : 16:9
Frame rate mode : Constant
Frame rate : 29.970 (30000/1001) FPS
Color space : YUV
Chroma subsampling : 4:2:0
Bit depth : 8 bits
Scan type : Progressive
Bits/(Pixel*Frame) : 0.084
Stream size : 1.32 GiB (91%)
Default : Yes
Forced : No
Color range : Limited
Color primaries : BT.709
Transfer characteristics : BT.709
Matrix coefficients : BT.709

NOAH Sanctuary 2021

Audio
ID : 2
Format : AAC LC
Format/Info : Advanced Audio
Codec ID : A_AAC-2
Duration : 2 h 24 min
Bit rate : 125 kb/s
Channel(s) : 2 channels
Channel layout : L R
Sampling rate : 48.0 kHz
Frame rate : 46.875 FPS
Compression mode : Lossy
Delay relative to video : 8 ms
Stream size : 129 MiB (9%)
Default : Yes
Forced : No

NOAH Sanctuary 2021

Complete name : NOAH.2021.07.27.NOAH.Sanctuary.JAPANESE.720p.WEB.h264-LATE.mkv
Format : Matroska
Format version : Version 4
File size : 2.96 GiB
Duration : 2 h 24 min
Overall bit rate mode : Variable
Overall bit rate : 2 934 kb/s

Video
ID : 1
Format : AVC
Format/Info : Advanced Video
Duration : 2 h 24 min
Bit rate mode : Variable
Bit rate : 2 742 kb/s
Maximum bit rate : 8 000 kb/s
Width : 1 280 pixels
Height : 720 pixels
Display aspect ratio : 16:9
Frame rate mode : Constant
Frame rate : 29.970 (30000/1001) FPS
Color space : YUV
Chroma subsampling : 4:2:0
Bit depth : 8 bits
Scan type : Progressive
Bits/(Pixel*Frame) : 0.099
Stream size : 2.76 GiB (93%)
Default : Yes
Forced : No
Color range : Limited
Color primaries : BT.709
Transfer characteristics : BT.709
Matrix coefficients : BT.709

NOAH Sanctuary 2021

Audio
ID : 2
Format : AAC LC
Codec ID : A_AAC-2
Duration : 2 h 24 min
Bit rate : 192 kb/s
Channel(s) : 2 channels
Channel layout : L R
Sampling rate : 48.0 kHz
Frame rate : 46.875 FPS
Compression mode : Lossy
Delay relative to video : 8 ms
Stream size : 195 MiB (6%)
Default : Yes
Forced : No

Complete name : NOAH.2021.07.27.NOAH.Sanctuary.JAPANESE.1080p.WEB.h264-LATE.mkv
Format : Matroska
Format version : Version 4
File size : 6.88 GiB
Duration : 2 h 24 min
Overall bit rate mode : Variable
Overall bit rate : 6 828 kb/s

NOAH Sanctuary 2021

Video
ID : 1
Format : AVC
Duration : 2 h 24 min
Bit rate mode : Variable
Bit rate : 6 444 kb/s
Maximum bit rate : 18.0 Mb/s
Width : 1 920 pixels
Height : 1 080 pixels
Display aspect ratio : 16:9
Frame rate mode : Constant
Frame rate : 29.970 (30000/1001) FPS
Color space : YUV
Chroma subsampling : 4:2:0
Bit depth : 8 bits
Scan type : Progressive
Bits/(Pixel*Frame) : 0.104
Stream size : 6.49 GiB (94%)
Default : Yes
Forced : No
Color range : Limited
Color primaries : BT.709
Transfer characteristics : BT.709
Matrix coefficients : BT.709

NOAH Sanctuary 2021

Audio
ID : 2
Format : AAC LC
Codec ID : A_AAC-2
Duration : 2 h 24 min
Bit rate : 384 kb/s
Channel(s) : 2 channels
Channel layout : L R
Sampling rate : 48.0 kHz
Frame rate : 46.875 FPS
Compression mode : Lossy
Delay relative to video : 8 ms
Stream size : 393 MiB (6%)
Default : Yes
Forced : No

Complete name : NOAH.2021.07.27.NOAH.Sanctuary.JAPANESE.WEB.h264-LATE.mkv
Format : Matroska
Format version : Version 4
File size : 1.45 GiB
Duration : 2 h 24 min
Overall bit rate mode : Variable
Overall bit rate : 1 438 kb/s

NOAH Sanctuary 2021

Video
ID : 1
Format : AVC
Format/Info : Advanced Video
Duration : 2 h 24 min
Bit rate mode : Variable
Bit rate : 1 310 kb/s
Maximum bit rate : 4 000 kb/s
Width : 960 pixels
Height : 540 pixels
Display aspect ratio : 16:9
Frame rate mode : Constant
Frame rate : 29.970 (30000/1001) FPS
Color space : YUV
Chroma subsampling : 4:2:0
Bit depth : 8 bits
Scan type : Progressive
Bits/(Pixel*Frame) : 0.084
Stream size : 1.32 GiB (91%)
Default : Yes
Forced : No
Color range : Limited
Color primaries : BT.709
Transfer characteristics : BT.709
Matrix coefficients : BT.709

NOAH Sanctuary 2021

Audio
ID : 2
Format : AAC LC
Format/Info : Advanced Audio
Codec ID : A_AAC-2
Duration : 2 h 24 min
Bit rate : 125 kb/s
Channel(s) : 2 channels
Channel layout : L R
Sampling rate : 48.0 kHz
Frame rate : 46.875 FPS
Compression mode : Lossy
Delay relative to video : 8 ms
Stream size : 129 MiB (9%)
Default : Yes
Forced : No

NOAH Sanctuary 2021

 

[collapse]

 

 

https://dx-tv.com/

Leave a Reply

Your email address will not be published. Required fields are marked *

This site uses Akismet to reduce spam. Learn how your comment data is processed.