NOAH Replay: Grand Square 2021 10 10 English

NOAH Replay: Grand Square 2021 10 10 in Osaka English Full Show DX-TV

NOAH Replay

 NOAH Replay

 

 

 

Download Links with premium High Speed
 

 


 

Dopapk

 

 

Show Links

 

 

 

 

 

 

 

Nitroflare

 

 

Show Links

 

 

http://shrt10.com/umhSJz
http://shrt10.com/sn36EhDD
http://shrt10.com/y7gd7

 

 

 

 

Rapidgator

 

 

Show Links

 

 

http://shrt10.com/33OSE
http://shrt10.com/oV86fK0
http://shrt10.com/iMdK3

 

 

 

 

 

Uploaded
 

 

 

Show Links

 

 

http://shrt10.com/cg4WUOun5
http://shrt10.com/y52t87

 

 

 

 

 

 

 

Watch online

 

Server 1

 

 

 

 

NOAH Replay

 

 

 

 

Server-2

 

 

 

 

watch now

 

 

 

|Server-3

 

 

 

 

watch now

 

 

Uploaded By Site DX-TV.com

 

 

Open Info Show

 

 

Complete name : NOAH.2021.10.10.Grand.Square.2021.in.Osaka.ENGLISH.WEB.h264-LATE.mkv
Format : Matroska
Format version : Version 4
File size : 2.13 GiB
Duration : 3 h 37 min
Overall bit rate mode : Variable
Overall bit rate : 1 405 kb/s

NOAH Replay

Video
ID : 1
Format : AVC
Duration : 3 h 37 min
Bit rate mode : Variable
Bit rate : 1 277 kb/s
Maximum bit rate : 4 000 kb/s
Width : 960 pixels
Height : 540 pixels
Display aspect ratio : 16:9
Frame rate mode : Variable
Frame rate : 29.938 FPS
Original frame rate : 29.970 (30000/1001) FPS
Color space : YUV
Chroma subsampling : 4:2:0
Bit depth : 8 bits
Scan type : Progressive
Bits/(Pixel*Frame) : 0.082
Stream size : 1.94 GiB (91%)
Default : Yes
Forced : No
Color range : Limited
Color primaries : BT.709
Transfer characteristics : BT.709
Matrix coefficients : BT.709

NOAH Replay

Audio
ID : 2
Format : AAC LC
Codec ID : A_AAC-2
Duration : 3 h 37 min
Bit rate : 125 kb/s
Channel(s) : 2 channels
Channel layout : L R
Sampling rate : 48.0 kHz
Frame rate : 46.875 FPS (1024 SPF)
Compression mode : Lossy
Delay relative to video : 1 ms
Stream size : 194 MiB (9%)
Default : Yes
Forced : No

Complete name : NOAH.2021.10.10.Grand.Square.2021.in.Osaka.ENGLISH.1080p.WEB.h264-LATE.mkv
Format : Matroska
Format version : Version 4
File size : 9.64 GiB
Duration : 3 h 37 min
Overall bit rate mode : Variable
Overall bit rate : 6 355 kb/s

NOAH Replay

Video
ID : 1
Format : AVC
Codec ID : V_MPEG4/ISO/AVC
Duration : 3 h 37 min
Bit rate mode : Variable
Bit rate : 5 972 kb/s
Maximum bit rate : 18.0 Mb/s
Width : 1 920 pixels
Height : 1 080 pixels
Display aspect ratio : 16:9
Frame rate mode : Variable
Frame rate : 29.938 FPS
Original frame rate : 29.970 (30000/1001) FPS
Color space : YUV
Chroma subsampling : 4:2:0
Bit depth : 8 bits
Scan type : Progressive
Bits/(Pixel*Frame) : 0.096
Stream size : 9.06 GiB (94%)
Default : Yes
Forced : No
Color range : Limited
Color primaries : BT.709
Transfer characteristics : BT.709
Matrix coefficients : BT.709

Audio
ID : 2
Format : AAC LC
Codec ID : A_AAC-2
Duration : 3 h 37 min
Bit rate : 384 kb/s
Channel(s) : 2 channels
Channel layout : L R
Sampling rate : 48.0 kHz
Frame rate : 46.875 FPS (1024 SPF)
Compression mode : Lossy
Delay relative to video : 1 ms
Stream size : 592 MiB (6%)
Default : Yes
Forced : No

NOAH Replay

Complete name : NOAH.2021.10.10.Grand.Square.2021.in.Osaka.ENGLISH.720p.WEB.h264-LATE.mkv
Format : Matroska
Format version : Version 4
File size : 4.26 GiB
Duration : 3 h 37 min
Overall bit rate mode : Variable
Overall bit rate : 2 806 kb/s

Video
ID : 1
Format : AVC
Duration : 3 h 37 min
Bit rate mode : Variable
Bit rate : 2 615 kb/s
Maximum bit rate : 8 000 kb/s
Width : 1 280 pixels
Height : 720 pixels
Display aspect ratio : 16:9
Frame rate mode : Variable
Frame rate : 29.938 FPS
Original frame rate : 29.970 (30000/1001) FPS
Color space : YUV
Chroma subsampling : 4:2:0
Bit depth : 8 bits
Scan type : Progressive
Bits/(Pixel*Frame) : 0.095
Stream size : 3.97 GiB (93%)
Default : Yes
Forced : No
Color range : Limited
Color primaries : BT.709
Transfer characteristics : BT.709
Matrix coefficients : BT.709

NOAH Replay

Audio
ID : 2
Format : AAC LC
Codec ID : A_AAC-2
Duration : 3 h 37 min
Bit rate : 192 kb/s
Channel(s) : 2 channels
Channel layout : L R
Sampling rate : 48.0 kHz
Frame rate : 46.875 FPS (1024 SPF)
Compression mode : Lossy
Delay relative to video : 1 ms
Stream size : 294 MiB (7%)
Default : Yes
Forced : No

 

 

https://dx-tv.com/

 

 

 

 

 

You May Also Like

Leave a Reply

Your email address will not be published. Required fields are marked *

This site uses Akismet to reduce spam. Learn how your comment data is processed.