NOAH Muta The World Japan 2021 06 27 720p Online Free Replay DX-TV

Contents show

NOAH Muta The World Japan

NOAH Muta The World Japan

 

 

 

Download Links with premium High Speed


Dopapk

 

 

 

 

Nitroflare

 

 

 

 

Rapidgator

 

 

 

 

Uploaded

 

 

Show Links

 

http://shrt10.com/hX8uCHXc

 

[collapse]

 

 

Watch online

 

Server 1

 

 

 

 

NOAH Muta The World Japan

 

 

 

 

Server-2

 

 

 

 

watch now

 

 

Uploaded By Site DX-TV.com

 

 

Show Info This Show

 

NOAH Muta The World Japan

Complete name : 2021.06.27.NOAH.Muta.the.World.Part1.mp4
Format : MPEG-4
Format profile : Base Media
Codec ID : isom
File size : 3.65 GiB
Duration : 2 h 31 min
Overall bit rate mode : Variable
Overall bit rate : 3 458 kb/s

Video
ID : 1
Format : AVC
Format/Info : Advanced Video
Duration : 2 h 31 min
Bit rate mode : Variable
Bit rate : 3 259 kb/s
Maximum bit rate : 6 000 kb/s
Width : 1 920 pixels
Height : 1 080 pixels
Display aspect ratio : 16:9
Frame rate mode : Variable
Frame rate : 30.000 FPS
Minimum frame rate : 28.571 FPS
Maximum frame rate : 31.250 FPS
Original frame rate : 29.970 (30000/1001) FPS
Standard : NTSC
Color space : YUV
Chroma subsampling : 4:2:0
Bit depth : 8 bits
Scan type : Progressive
Bits/(Pixel*Frame) : 0.052
Stream size : 3.44 GiB (94%)
Color range : Limited
Color primaries : BT.709
Transfer characteristics : BT.709
Matrix coefficients : BT.709
Codec configuration box : avcC

NOAH Muta The World Japan

Audio
ID : 2
Format : AAC LC
Format/Info : Advanced Audio
Codec ID : mp4a-40-2
Duration : 2 h 31 min
Bit rate mode : Variable
Bit rate : 192 kb/s
Maximum bit rate : 198 kb/s
Channel(s) : 2 channels
Channel layout : L R
Sampling rate : 48.0 kHz
Frame rate : 46.875 FPS
Compression mode : Lossy
Stream size : 205 MiB (5%)
Default : Yes
Alternate group : 1

General
Complete name : NOAH Muta The World 2021 06 27 480p Japan WEB H264 BY DX-TV.COM.mp4
Format : MPEG-4
Format profile : Base Media
Codec ID : mp42 (mp42)
File size : 4.47 GiB
Duration : 3 h 56 min
Overall bit rate : 2 714 kb/s

NOAH Muta The World Japan

Video
ID : 1
Format : AVC
Duration : 3 h 56 min
Bit rate : 2 577 kb/s
Width : 1 280 pixels
Height : 720 pixels
Display aspect ratio : 16:9
Frame rate mode : Constant
Frame rate : 30.000 FPS
Color space : YUV
Chroma subsampling : 4:2:0
Bit depth : 8 bits
Scan type : Progressive
Bits/(Pixel*Frame) : 0.093
Stream size : 4.25 GiB (95%)
Language : English
Codec configuration box : avcC

NOAH Muta The World Japan

Audio
ID : 2
Format : AAC LC
Format/Info : Advanced Audio
Codec ID : mp4a-40-2
Duration : 3 h 56 min
Bit rate mode : Constant
Bit rate : 128 kb/s
Channel(s) : 2 channels
Channel layout : L R
Sampling rate : 44.1 kHz
Frame rate : 43.066 FPS (1024 SPF)
Compression mode : Lossy
Stream size : 216 MiB (5%)
Title : Stereo
Language : English
Default : Yes
Alternate group : 1

NOAH Muta The World Japan

 

Complete name : 2021.06.27.NOAH.Muta.the.World.Part1.mp4
Format : MPEG-4
Format profile : Base Media
Codec ID : isom
File size : 3.65 GiB
Duration : 2 h 31 min
Overall bit rate mode : Variable
Overall bit rate : 3 458 kb/s

Video
ID : 1
Format : AVC
Format/Info : Advanced Video
Duration : 2 h 31 min
Bit rate mode : Variable
Bit rate : 3 259 kb/s
Maximum bit rate : 6 000 kb/s
Width : 1 920 pixels
Height : 1 080 pixels
Display aspect ratio : 16:9
Frame rate mode : Variable
Frame rate : 30.000 FPS
Minimum frame rate : 28.571 FPS
Maximum frame rate : 31.250 FPS
Original frame rate : 29.970 (30000/1001) FPS
Standard : NTSC
Color space : YUV
Chroma subsampling : 4:2:0
Bit depth : 8 bits
Scan type : Progressive
Bits/(Pixel*Frame) : 0.052
Stream size : 3.44 GiB (94%)
Color range : Limited
Color primaries : BT.709
Transfer characteristics : BT.709
Matrix coefficients : BT.709
Codec configuration box : avcC

NOAH Muta The World Japan

Audio
ID : 2
Format : AAC LC
Format/Info : Advanced Audio
Codec ID : mp4a-40-2
Duration : 2 h 31 min
Bit rate mode : Variable
Bit rate : 192 kb/s
Maximum bit rate : 198 kb/s
Channel(s) : 2 channels
Channel layout : L R
Sampling rate : 48.0 kHz
Frame rate : 46.875 FPS
Compression mode : Lossy
Stream size : 205 MiB (5%)
Default : Yes
Alternate group : 1

General
Complete name : NOAH Muta The World 2021 06 27 480p Japan WEB H264 BY DX-TV.COM.mp4
Format : MPEG-4
Format profile : Base Media
Codec ID : mp42 (mp42)
File size : 4.47 GiB
Duration : 3 h 56 min
Overall bit rate : 2 714 kb/s

NOAH Muta The World Japan

Video
ID : 1
Format : AVC
Duration : 3 h 56 min
Bit rate : 2 577 kb/s
Width : 1 280 pixels
Height : 720 pixels
Display aspect ratio : 16:9
Frame rate mode : Constant
Frame rate : 30.000 FPS
Color space : YUV
Chroma subsampling : 4:2:0
Bit depth : 8 bits
Scan type : Progressive
Bits/(Pixel*Frame) : 0.093
Stream size : 4.25 GiB (95%)
Language : English
Codec configuration box : avcC

NOAH Muta The World Japan

Audio
ID : 2
Format : AAC LC
Format/Info : Advanced Audio
Codec ID : mp4a-40-2
Duration : 3 h 56 min
Bit rate mode : Constant
Bit rate : 128 kb/s
Channel(s) : 2 channels
Channel layout : L R
Sampling rate : 44.1 kHz
Frame rate : 43.066 FPS (1024 SPF)
Compression mode : Lossy
Stream size : 216 MiB (5%)
Title : Stereo
Language : English
Default : Yes
Alternate group : 1

NOAH Muta The World Japan

 

Complete name : 2021.06.27.NOAH.Muta.the.World.Part1.mp4
Format : MPEG-4
Format profile : Base Media
Codec ID : isom
File size : 3.65 GiB
Duration : 2 h 31 min
Overall bit rate mode : Variable
Overall bit rate : 3 458 kb/s

Video
ID : 1
Format : AVC
Format/Info : Advanced Video
Duration : 2 h 31 min
Bit rate mode : Variable
Bit rate : 3 259 kb/s
Maximum bit rate : 6 000 kb/s
Width : 1 920 pixels
Height : 1 080 pixels
Display aspect ratio : 16:9
Frame rate mode : Variable
Frame rate : 30.000 FPS
Minimum frame rate : 28.571 FPS
Maximum frame rate : 31.250 FPS
Original frame rate : 29.970 (30000/1001) FPS
Standard : NTSC
Color space : YUV
Chroma subsampling : 4:2:0
Bit depth : 8 bits
Scan type : Progressive
Bits/(Pixel*Frame) : 0.052
Stream size : 3.44 GiB (94%)
Color range : Limited
Color primaries : BT.709
Transfer characteristics : BT.709
Matrix coefficients : BT.709
Codec configuration box : avcC

NOAH Muta The World Japan

Audio
ID : 2
Format : AAC LC
Format/Info : Advanced Audio
Codec ID : mp4a-40-2
Duration : 2 h 31 min
Bit rate mode : Variable
Bit rate : 192 kb/s
Maximum bit rate : 198 kb/s
Channel(s) : 2 channels
Channel layout : L R
Sampling rate : 48.0 kHz
Frame rate : 46.875 FPS
Compression mode : Lossy
Stream size : 205 MiB (5%)
Default : Yes
Alternate group : 1

General
Complete name : NOAH Muta The World 2021 06 27 480p Japan WEB H264 BY DX-TV.COM.mp4
Format : MPEG-4
Format profile : Base Media
Codec ID : mp42 (mp42)
File size : 4.47 GiB
Duration : 3 h 56 min
Overall bit rate : 2 714 kb/s

NOAH Muta The World Japan

Video
ID : 1
Format : AVC
Duration : 3 h 56 min
Bit rate : 2 577 kb/s
Width : 1 280 pixels
Height : 720 pixels
Display aspect ratio : 16:9
Frame rate mode : Constant
Frame rate : 30.000 FPS
Color space : YUV
Chroma subsampling : 4:2:0
Bit depth : 8 bits
Scan type : Progressive
Bits/(Pixel*Frame) : 0.093
Stream size : 4.25 GiB (95%)
Language : English
Codec configuration box : avcC

NOAH Muta The World Japan

Audio
ID : 2
Format : AAC LC
Format/Info : Advanced Audio
Codec ID : mp4a-40-2
Duration : 3 h 56 min
Bit rate mode : Constant
Bit rate : 128 kb/s
Channel(s) : 2 channels
Channel layout : L R
Sampling rate : 44.1 kHz
Frame rate : 43.066 FPS (1024 SPF)
Compression mode : Lossy
Stream size : 216 MiB (5%)
Title : Stereo
Language : English
Default : Yes
Alternate group : 1

NOAH Muta The World Japan

 

Complete name : 2021.06.27.NOAH.Muta.the.World.Part1.mp4
Format : MPEG-4
Format profile : Base Media
Codec ID : isom
File size : 3.65 GiB
Duration : 2 h 31 min
Overall bit rate mode : Variable
Overall bit rate : 3 458 kb/s

Video
ID : 1
Format : AVC
Format/Info : Advanced Video
Duration : 2 h 31 min
Bit rate mode : Variable
Bit rate : 3 259 kb/s
Maximum bit rate : 6 000 kb/s
Width : 1 920 pixels
Height : 1 080 pixels
Display aspect ratio : 16:9
Frame rate mode : Variable
Frame rate : 30.000 FPS
Minimum frame rate : 28.571 FPS
Maximum frame rate : 31.250 FPS
Original frame rate : 29.970 (30000/1001) FPS
Standard : NTSC
Color space : YUV
Chroma subsampling : 4:2:0
Bit depth : 8 bits
Scan type : Progressive
Bits/(Pixel*Frame) : 0.052
Stream size : 3.44 GiB (94%)
Color range : Limited
Color primaries : BT.709
Transfer characteristics : BT.709
Matrix coefficients : BT.709
Codec configuration box : avcC

NOAH Muta The World Japan

Audio
ID : 2
Format : AAC LC
Format/Info : Advanced Audio
Codec ID : mp4a-40-2
Duration : 2 h 31 min
Bit rate mode : Variable
Bit rate : 192 kb/s
Maximum bit rate : 198 kb/s
Channel(s) : 2 channels
Channel layout : L R
Sampling rate : 48.0 kHz
Frame rate : 46.875 FPS
Compression mode : Lossy
Stream size : 205 MiB (5%)
Default : Yes
Alternate group : 1

General
Complete name : NOAH Muta The World 2021 06 27 480p Japan WEB H264 BY DX-TV.COM.mp4
Format : MPEG-4
Format profile : Base Media
Codec ID : mp42 (mp42)
File size : 4.47 GiB
Duration : 3 h 56 min
Overall bit rate : 2 714 kb/s

NOAH Muta The World Japan

Video
ID : 1
Format : AVC
Duration : 3 h 56 min
Bit rate : 2 577 kb/s
Width : 1 280 pixels
Height : 720 pixels
Display aspect ratio : 16:9
Frame rate mode : Constant
Frame rate : 30.000 FPS
Color space : YUV
Chroma subsampling : 4:2:0
Bit depth : 8 bits
Scan type : Progressive
Bits/(Pixel*Frame) : 0.093
Stream size : 4.25 GiB (95%)
Language : English
Codec configuration box : avcC

NOAH Muta The World Japan

Audio
ID : 2
Format : AAC LC
Format/Info : Advanced Audio
Codec ID : mp4a-40-2
Duration : 3 h 56 min
Bit rate mode : Constant
Bit rate : 128 kb/s
Channel(s) : 2 channels
Channel layout : L R
Sampling rate : 44.1 kHz
Frame rate : 43.066 FPS (1024 SPF)
Compression mode : Lossy
Stream size : 216 MiB (5%)
Title : Stereo
Language : English
Default : Yes
Alternate group : 1

NOAH Muta The World Japan

 

Complete name : 2021.06.27.NOAH.Muta.the.World.Part1.mp4
Format : MPEG-4
Format profile : Base Media
Codec ID : isom
File size : 3.65 GiB
Duration : 2 h 31 min
Overall bit rate mode : Variable
Overall bit rate : 3 458 kb/s

Video
ID : 1
Format : AVC
Format/Info : Advanced Video
Duration : 2 h 31 min
Bit rate mode : Variable
Bit rate : 3 259 kb/s
Maximum bit rate : 6 000 kb/s
Width : 1 920 pixels
Height : 1 080 pixels
Display aspect ratio : 16:9
Frame rate mode : Variable
Frame rate : 30.000 FPS
Minimum frame rate : 28.571 FPS
Maximum frame rate : 31.250 FPS
Original frame rate : 29.970 (30000/1001) FPS
Standard : NTSC
Color space : YUV
Chroma subsampling : 4:2:0
Bit depth : 8 bits
Scan type : Progressive
Bits/(Pixel*Frame) : 0.052
Stream size : 3.44 GiB (94%)
Color range : Limited
Color primaries : BT.709
Transfer characteristics : BT.709
Matrix coefficients : BT.709
Codec configuration box : avcC

NOAH Muta The World Japan

Audio
ID : 2
Format : AAC LC
Format/Info : Advanced Audio
Codec ID : mp4a-40-2
Duration : 2 h 31 min
Bit rate mode : Variable
Bit rate : 192 kb/s
Maximum bit rate : 198 kb/s
Channel(s) : 2 channels
Channel layout : L R
Sampling rate : 48.0 kHz
Frame rate : 46.875 FPS
Compression mode : Lossy
Stream size : 205 MiB (5%)
Default : Yes
Alternate group : 1

General
Complete name : NOAH Muta The World 2021 06 27 480p Japan WEB H264 BY DX-TV.COM.mp4
Format : MPEG-4
Format profile : Base Media
Codec ID : mp42 (mp42)
File size : 4.47 GiB
Duration : 3 h 56 min
Overall bit rate : 2 714 kb/s

NOAH Muta The World Japan

Video
ID : 1
Format : AVC
Duration : 3 h 56 min
Bit rate : 2 577 kb/s
Width : 1 280 pixels
Height : 720 pixels
Display aspect ratio : 16:9
Frame rate mode : Constant
Frame rate : 30.000 FPS
Color space : YUV
Chroma subsampling : 4:2:0
Bit depth : 8 bits
Scan type : Progressive
Bits/(Pixel*Frame) : 0.093
Stream size : 4.25 GiB (95%)
Language : English
Codec configuration box : avcC

NOAH Muta The World Japan

Audio
ID : 2
Format : AAC LC
Format/Info : Advanced Audio
Codec ID : mp4a-40-2
Duration : 3 h 56 min
Bit rate mode : Constant
Bit rate : 128 kb/s
Channel(s) : 2 channels
Channel layout : L R
Sampling rate : 44.1 kHz
Frame rate : 43.066 FPS (1024 SPF)
Compression mode : Lossy
Stream size : 216 MiB (5%)
Title : Stereo
Language : English
Default : Yes
Alternate group : 1

NOAH Muta The World Japan

 

Complete name : 2021.06.27.NOAH.Muta.the.World.Part1.mp4
Format : MPEG-4
Format profile : Base Media
Codec ID : isom
File size : 3.65 GiB
Duration : 2 h 31 min
Overall bit rate mode : Variable
Overall bit rate : 3 458 kb/s

Video
ID : 1
Format : AVC
Format/Info : Advanced Video
Duration : 2 h 31 min
Bit rate mode : Variable
Bit rate : 3 259 kb/s
Maximum bit rate : 6 000 kb/s
Width : 1 920 pixels
Height : 1 080 pixels
Display aspect ratio : 16:9
Frame rate mode : Variable
Frame rate : 30.000 FPS
Minimum frame rate : 28.571 FPS
Maximum frame rate : 31.250 FPS
Original frame rate : 29.970 (30000/1001) FPS
Standard : NTSC
Color space : YUV
Chroma subsampling : 4:2:0
Bit depth : 8 bits
Scan type : Progressive
Bits/(Pixel*Frame) : 0.052
Stream size : 3.44 GiB (94%)
Color range : Limited
Color primaries : BT.709
Transfer characteristics : BT.709
Matrix coefficients : BT.709
Codec configuration box : avcC

NOAH Muta The World Japan

Audio
ID : 2
Format : AAC LC
Format/Info : Advanced Audio
Codec ID : mp4a-40-2
Duration : 2 h 31 min
Bit rate mode : Variable
Bit rate : 192 kb/s
Maximum bit rate : 198 kb/s
Channel(s) : 2 channels
Channel layout : L R
Sampling rate : 48.0 kHz
Frame rate : 46.875 FPS
Compression mode : Lossy
Stream size : 205 MiB (5%)
Default : Yes
Alternate group : 1

General
Complete name : NOAH Muta The World 2021 06 27 480p Japan WEB H264 BY DX-TV.COM.mp4
Format : MPEG-4
Format profile : Base Media
Codec ID : mp42 (mp42)
File size : 4.47 GiB
Duration : 3 h 56 min
Overall bit rate : 2 714 kb/s

NOAH Muta The World Japan

Video
ID : 1
Format : AVC
Duration : 3 h 56 min
Bit rate : 2 577 kb/s
Width : 1 280 pixels
Height : 720 pixels
Display aspect ratio : 16:9
Frame rate mode : Constant
Frame rate : 30.000 FPS
Color space : YUV
Chroma subsampling : 4:2:0
Bit depth : 8 bits
Scan type : Progressive
Bits/(Pixel*Frame) : 0.093
Stream size : 4.25 GiB (95%)
Language : English
Codec configuration box : avcC

NOAH Muta The World Japan

Audio
ID : 2
Format : AAC LC
Format/Info : Advanced Audio
Codec ID : mp4a-40-2
Duration : 3 h 56 min
Bit rate mode : Constant
Bit rate : 128 kb/s
Channel(s) : 2 channels
Channel layout : L R
Sampling rate : 44.1 kHz
Frame rate : 43.066 FPS (1024 SPF)
Compression mode : Lossy
Stream size : 216 MiB (5%)
Title : Stereo
Language : English
Default : Yes
Alternate group : 1

NOAH Muta The World Japan

 

Complete name : 2021.06.27.NOAH.Muta.the.World.Part1.mp4
Format : MPEG-4
Format profile : Base Media
Codec ID : isom
File size : 3.65 GiB
Duration : 2 h 31 min
Overall bit rate mode : Variable
Overall bit rate : 3 458 kb/s

Video
ID : 1
Format : AVC
Format/Info : Advanced Video
Duration : 2 h 31 min
Bit rate mode : Variable
Bit rate : 3 259 kb/s
Maximum bit rate : 6 000 kb/s
Width : 1 920 pixels
Height : 1 080 pixels
Display aspect ratio : 16:9
Frame rate mode : Variable
Frame rate : 30.000 FPS
Minimum frame rate : 28.571 FPS
Maximum frame rate : 31.250 FPS
Original frame rate : 29.970 (30000/1001) FPS
Standard : NTSC
Color space : YUV
Chroma subsampling : 4:2:0
Bit depth : 8 bits
Scan type : Progressive
Bits/(Pixel*Frame) : 0.052
Stream size : 3.44 GiB (94%)
Color range : Limited
Color primaries : BT.709
Transfer characteristics : BT.709
Matrix coefficients : BT.709
Codec configuration box : avcC

NOAH Muta The World Japan

Audio
ID : 2
Format : AAC LC
Format/Info : Advanced Audio
Codec ID : mp4a-40-2
Duration : 2 h 31 min
Bit rate mode : Variable
Bit rate : 192 kb/s
Maximum bit rate : 198 kb/s
Channel(s) : 2 channels
Channel layout : L R
Sampling rate : 48.0 kHz
Frame rate : 46.875 FPS
Compression mode : Lossy
Stream size : 205 MiB (5%)
Default : Yes
Alternate group : 1

General
Complete name : NOAH Muta The World 2021 06 27 480p Japan WEB H264 BY DX-TV.COM.mp4
Format : MPEG-4
Format profile : Base Media
Codec ID : mp42 (mp42)
File size : 4.47 GiB
Duration : 3 h 56 min
Overall bit rate : 2 714 kb/s

NOAH Muta The World Japan

Video
ID : 1
Format : AVC
Duration : 3 h 56 min
Bit rate : 2 577 kb/s
Width : 1 280 pixels
Height : 720 pixels
Display aspect ratio : 16:9
Frame rate mode : Constant
Frame rate : 30.000 FPS
Color space : YUV
Chroma subsampling : 4:2:0
Bit depth : 8 bits
Scan type : Progressive
Bits/(Pixel*Frame) : 0.093
Stream size : 4.25 GiB (95%)
Language : English
Codec configuration box : avcC

NOAH Muta The World Japan

Audio
ID : 2
Format : AAC LC
Format/Info : Advanced Audio
Codec ID : mp4a-40-2
Duration : 3 h 56 min
Bit rate mode : Constant
Bit rate : 128 kb/s
Channel(s) : 2 channels
Channel layout : L R
Sampling rate : 44.1 kHz
Frame rate : 43.066 FPS (1024 SPF)
Compression mode : Lossy
Stream size : 216 MiB (5%)
Title : Stereo
Language : English
Default : Yes
Alternate group : 1

NOAH Muta The World Japan

 

Complete name : 2021.06.27.NOAH.Muta.the.World.Part1.mp4
Format : MPEG-4
Format profile : Base Media
Codec ID : isom
File size : 3.65 GiB
Duration : 2 h 31 min
Overall bit rate mode : Variable
Overall bit rate : 3 458 kb/s

Video
ID : 1
Format : AVC
Format/Info : Advanced Video
Duration : 2 h 31 min
Bit rate mode : Variable
Bit rate : 3 259 kb/s
Maximum bit rate : 6 000 kb/s
Width : 1 920 pixels
Height : 1 080 pixels
Display aspect ratio : 16:9
Frame rate mode : Variable
Frame rate : 30.000 FPS
Minimum frame rate : 28.571 FPS
Maximum frame rate : 31.250 FPS
Original frame rate : 29.970 (30000/1001) FPS
Standard : NTSC
Color space : YUV
Chroma subsampling : 4:2:0
Bit depth : 8 bits
Scan type : Progressive
Bits/(Pixel*Frame) : 0.052
Stream size : 3.44 GiB (94%)
Color range : Limited
Color primaries : BT.709
Transfer characteristics : BT.709
Matrix coefficients : BT.709
Codec configuration box : avcC

NOAH Muta The World Japan

Audio
ID : 2
Format : AAC LC
Format/Info : Advanced Audio
Codec ID : mp4a-40-2
Duration : 2 h 31 min
Bit rate mode : Variable
Bit rate : 192 kb/s
Maximum bit rate : 198 kb/s
Channel(s) : 2 channels
Channel layout : L R
Sampling rate : 48.0 kHz
Frame rate : 46.875 FPS
Compression mode : Lossy
Stream size : 205 MiB (5%)
Default : Yes
Alternate group : 1

General
Complete name : NOAH Muta The World 2021 06 27 480p Japan WEB H264 BY DX-TV.COM.mp4
Format : MPEG-4
Format profile : Base Media
Codec ID : mp42 (mp42)
File size : 4.47 GiB
Duration : 3 h 56 min
Overall bit rate : 2 714 kb/s

NOAH Muta The World Japan

Video
ID : 1
Format : AVC
Duration : 3 h 56 min
Bit rate : 2 577 kb/s
Width : 1 280 pixels
Height : 720 pixels
Display aspect ratio : 16:9
Frame rate mode : Constant
Frame rate : 30.000 FPS
Color space : YUV
Chroma subsampling : 4:2:0
Bit depth : 8 bits
Scan type : Progressive
Bits/(Pixel*Frame) : 0.093
Stream size : 4.25 GiB (95%)
Language : English
Codec configuration box : avcC

NOAH Muta The World Japan

Audio
ID : 2
Format : AAC LC
Format/Info : Advanced Audio
Codec ID : mp4a-40-2
Duration : 3 h 56 min
Bit rate mode : Constant
Bit rate : 128 kb/s
Channel(s) : 2 channels
Channel layout : L R
Sampling rate : 44.1 kHz
Frame rate : 43.066 FPS (1024 SPF)
Compression mode : Lossy
Stream size : 216 MiB (5%)
Title : Stereo
Language : English
Default : Yes
Alternate group : 1

NOAH Muta The World Japan

 

Complete name : 2021.06.27.NOAH.Muta.the.World.Part1.mp4
Format : MPEG-4
Format profile : Base Media
Codec ID : isom
File size : 3.65 GiB
Duration : 2 h 31 min
Overall bit rate mode : Variable
Overall bit rate : 3 458 kb/s

Video
ID : 1
Format : AVC
Format/Info : Advanced Video
Duration : 2 h 31 min
Bit rate mode : Variable
Bit rate : 3 259 kb/s
Maximum bit rate : 6 000 kb/s
Width : 1 920 pixels
Height : 1 080 pixels
Display aspect ratio : 16:9
Frame rate mode : Variable
Frame rate : 30.000 FPS
Minimum frame rate : 28.571 FPS
Maximum frame rate : 31.250 FPS
Original frame rate : 29.970 (30000/1001) FPS
Standard : NTSC
Color space : YUV
Chroma subsampling : 4:2:0
Bit depth : 8 bits
Scan type : Progressive
Bits/(Pixel*Frame) : 0.052
Stream size : 3.44 GiB (94%)
Color range : Limited
Color primaries : BT.709
Transfer characteristics : BT.709
Matrix coefficients : BT.709
Codec configuration box : avcC

NOAH Muta The World Japan

Audio
ID : 2
Format : AAC LC
Format/Info : Advanced Audio
Codec ID : mp4a-40-2
Duration : 2 h 31 min
Bit rate mode : Variable
Bit rate : 192 kb/s
Maximum bit rate : 198 kb/s
Channel(s) : 2 channels
Channel layout : L R
Sampling rate : 48.0 kHz
Frame rate : 46.875 FPS
Compression mode : Lossy
Stream size : 205 MiB (5%)
Default : Yes
Alternate group : 1

General
Complete name : NOAH Muta The World 2021 06 27 480p Japan WEB H264 BY DX-TV.COM.mp4
Format : MPEG-4
Format profile : Base Media
Codec ID : mp42 (mp42)
File size : 4.47 GiB
Duration : 3 h 56 min
Overall bit rate : 2 714 kb/s

NOAH Muta The World Japan

Video
ID : 1
Format : AVC
Duration : 3 h 56 min
Bit rate : 2 577 kb/s
Width : 1 280 pixels
Height : 720 pixels
Display aspect ratio : 16:9
Frame rate mode : Constant
Frame rate : 30.000 FPS
Color space : YUV
Chroma subsampling : 4:2:0
Bit depth : 8 bits
Scan type : Progressive
Bits/(Pixel*Frame) : 0.093
Stream size : 4.25 GiB (95%)
Language : English
Codec configuration box : avcC

NOAH Muta The World Japan

Audio
ID : 2
Format : AAC LC
Format/Info : Advanced Audio
Codec ID : mp4a-40-2
Duration : 3 h 56 min
Bit rate mode : Constant
Bit rate : 128 kb/s
Channel(s) : 2 channels
Channel layout : L R
Sampling rate : 44.1 kHz
Frame rate : 43.066 FPS (1024 SPF)
Compression mode : Lossy
Stream size : 216 MiB (5%)
Title : Stereo
Language : English
Default : Yes
Alternate group : 1

NOAH Muta The World Japan

 

Complete name : 2021.06.27.NOAH.Muta.the.World.Part1.mp4
Format : MPEG-4
Format profile : Base Media
Codec ID : isom
File size : 3.65 GiB
Duration : 2 h 31 min
Overall bit rate mode : Variable
Overall bit rate : 3 458 kb/s

Video
ID : 1
Format : AVC
Format/Info : Advanced Video
Duration : 2 h 31 min
Bit rate mode : Variable
Bit rate : 3 259 kb/s
Maximum bit rate : 6 000 kb/s
Width : 1 920 pixels
Height : 1 080 pixels
Display aspect ratio : 16:9
Frame rate mode : Variable
Frame rate : 30.000 FPS
Minimum frame rate : 28.571 FPS
Maximum frame rate : 31.250 FPS
Original frame rate : 29.970 (30000/1001) FPS
Standard : NTSC
Color space : YUV
Chroma subsampling : 4:2:0
Bit depth : 8 bits
Scan type : Progressive
Bits/(Pixel*Frame) : 0.052
Stream size : 3.44 GiB (94%)
Color range : Limited
Color primaries : BT.709
Transfer characteristics : BT.709
Matrix coefficients : BT.709
Codec configuration box : avcC

NOAH Muta The World Japan

Audio
ID : 2
Format : AAC LC
Format/Info : Advanced Audio
Codec ID : mp4a-40-2
Duration : 2 h 31 min
Bit rate mode : Variable
Bit rate : 192 kb/s
Maximum bit rate : 198 kb/s
Channel(s) : 2 channels
Channel layout : L R
Sampling rate : 48.0 kHz
Frame rate : 46.875 FPS
Compression mode : Lossy
Stream size : 205 MiB (5%)
Default : Yes
Alternate group : 1

General
Complete name : NOAH Muta The World 2021 06 27 480p Japan WEB H264 BY DX-TV.COM.mp4
Format : MPEG-4
Format profile : Base Media
Codec ID : mp42 (mp42)
File size : 4.47 GiB
Duration : 3 h 56 min
Overall bit rate : 2 714 kb/s

NOAH Muta The World Japan

Video
ID : 1
Format : AVC
Duration : 3 h 56 min
Bit rate : 2 577 kb/s
Width : 1 280 pixels
Height : 720 pixels
Display aspect ratio : 16:9
Frame rate mode : Constant
Frame rate : 30.000 FPS
Color space : YUV
Chroma subsampling : 4:2:0
Bit depth : 8 bits
Scan type : Progressive
Bits/(Pixel*Frame) : 0.093
Stream size : 4.25 GiB (95%)
Language : English
Codec configuration box : avcC

NOAH Muta The World Japan

Audio
ID : 2
Format : AAC LC
Format/Info : Advanced Audio
Codec ID : mp4a-40-2
Duration : 3 h 56 min
Bit rate mode : Constant
Bit rate : 128 kb/s
Channel(s) : 2 channels
Channel layout : L R
Sampling rate : 44.1 kHz
Frame rate : 43.066 FPS (1024 SPF)
Compression mode : Lossy
Stream size : 216 MiB (5%)
Title : Stereo
Language : English
Default : Yes
Alternate group : 1

NOAH Muta The World Japan

 

 

 

 

[collapse]

 

 

https://dx-tv.com/

Leave a Reply

Your email address will not be published. Required fields are marked *

This site uses Akismet to reduce spam. Learn how your comment data is processed.

Previous Post
wwe raw

WWE RAW Full Show Free Live 2021 06 28

Next Post
wwe raw 2021

WWE Monday Night Raw 2021 06 28 1080p Online Free