NOAH Muta The World English 2021 06 27 Online Free Replay DX-TV

Contents show

NOAH Muta The World English

 NOAH Muta The World English

 

 

 

Download Links with premium High Speed


Dopapk

 

 

Show Links

 

http://shrt10.com/vKItRpt
http://shrt10.com/YwFzRjGfL
http://shrt10.com/asu6h0PIC

 

[collapse]

 

 

Nitroflare

 

 

Show Links

 

http://shrt10.com/FhOgShYQp
http://shrt10.com/W9Z9OxJW9
http://shrt10.com/kY9CWL

 

[collapse]

 

 

Rapidgator

 

 

Show Links

 

http://shrt10.com/ugxsSbD
http://shrt10.com/eS6E35vp
http://shrt10.com/5mmua

 

[collapse]

 

 

Uploaded

 

 

Show Links

 

http://shrt10.com/DNDHEX1Cd
http://shrt10.com/3IqcWKB11

 

[collapse]

 

 

Watch online

 

Server 1

 

 

 

 

watch now

 

 

 

 

Server-2

 

 

 

 

NOAH Muta The World English

 

 

 

|Server-4

 

 

 

 

watch now

 

 

Uploaded By Site DX-TV.com

 

 

Show Info This Show

 

NOAH Muta The World English

Complete name : NOAH.2021.06.27.Muta.The.World.ENGLISH.720p.WEB.h264-LATE.mkv
Format : Matroska
Format version : Version 4
File size : 4.40 GiB
Duration : 3 h 51 min
Overall bit rate mode : Variable
Overall bit rate : 2 722 kb/s

Video
ID : 1
Format : AVC
Format/Info : Advanced Video
Duration : 3 h 51 min
Bit rate mode : Variable
Bit rate : 2 530 kb/s
Maximum bit rate : 8 000 kb/s
Width : 1 280 pixels
Height : 720 pixels
Display aspect ratio : 16:9
Frame rate mode : Constant
Frame rate : 29.970 (30000/1001) FPS
Color space : YUV
Chroma subsampling : 4:2:0
Bit depth : 8 bits
Scan type : Progressive
Bits/(Pixel*Frame) : 0.092
Stream size : 4.09 GiB (93%)
Default : Yes
Forced : No
Color range : Limited
Color primaries : BT.709
Transfer characteristics : BT.709
Matrix coefficients : BT.709

NOAH Muta The World English

Audio
ID : 2
Format : AAC LC
Format/Info : Advanced Audio
Codec ID : A_AAC-2
Duration : 3 h 51 min
Bit rate : 192 kb/s
Channel(s) : 2 channels
Channel layout : L R
Sampling rate : 48.0 kHz
Frame rate : 46.875 FPS (1024 SPF)
Compression mode : Lossy
Delay relative to video : 14 ms
Stream size : 313 MiB (7%)
Default : Yes
Forced : No

Complete name : NOAH.2021.06.27.Muta.The.World.ENGLISH.1080p.WEB.h264-LATE.mkv
Format : Matroska
Format version : Version 4
File size : 10.6 GiB
Duration : 3 h 51 min
Overall bit rate mode : Variable
Overall bit rate : 6 533 kb/s

NOAH Muta The World English

Video
ID : 1
Format : AVC
Duration : 3 h 51 min
Bit rate mode : Variable
Bit rate : 6 149 kb/s
Maximum bit rate : 18.0 Mb/s
Width : 1 920 pixels
Height : 1 080 pixels
Display aspect ratio : 16:9
Frame rate mode : Constant
Frame rate : 29.970 (30000/1001) FPS
Color space : YUV
Chroma subsampling : 4:2:0
Bit depth : 8 bits
Scan type : Progressive
Bits/(Pixel*Frame) : 0.099
Stream size : 9.93 GiB (94%)
Default : Yes
Forced : No
Color range : Limited
Color primaries : BT.709
Transfer characteristics : BT.709
Matrix coefficients : BT.709

Audio
ID : 2
Format : AAC LC
Format/Info : Advanced Audio
Codec ID : A_AAC-2
Duration : 3 h 51 min
Bit rate : 384 kb/s
Channel(s) : 2 channels
Channel layout : L R
Sampling rate : 48.0 kHz
Frame rate : 46.875 FPS (1024 SPF)
Compression mode : Lossy
Delay relative to video : 14 ms
Stream size : 631 MiB (6%)
Default : Yes
Forced : No

NOAH Muta The World English

Complete name : NOAH.2021.06.27.Muta.The.World.ENGLISH.WEB.h264-LATE.mkv
Format : Matroska
Format version : Version 4
File size : 2.17 GiB
Duration : 3 h 51 min
Overall bit rate mode : Variable
Overall bit rate : 1 344 kb/s

Video
ID : 1
Format : AVC
Format/Info : Advanced Video
Duration : 3 h 51 min
Bit rate mode : Variable
Bit rate : 1 216 kb/s
Maximum bit rate : 4 000 kb/s
Width : 960 pixels
Height : 540 pixels
Display aspect ratio : 16:9
Frame rate mode : Constant
Frame rate : 29.970 (30000/1001) FPS
Color space : YUV
Chroma subsampling : 4:2:0
Bit depth : 8 bits
Scan type : Progressive
Bits/(Pixel*Frame) : 0.078
Stream size : 1.96 GiB (90%)
Default : Yes
Forced : No
Color range : Limited
Color primaries : BT.709
Transfer characteristics : BT.709
Matrix coefficients : BT.709

NOAH Muta The World English

Audio
ID : 2
Format : AAC LC
Format/Info : Advanced Audio
Codec ID : A_AAC-2
Duration : 3 h 51 min
Bit rate : 125 kb/s
Channel(s) : 2 channels
Channel layout : L R
Sampling rate : 48.0 kHz
Frame rate : 46.875 FPS (1024 SPF)
Compression mode : Lossy
Delay relative to video : 14 ms
Stream size : 207 MiB (9%)
Default : Yes
Forced : No

NOAH Muta The World English

Complete name : NOAH.2021.06.27.Muta.The.World.ENGLISH.720p.WEB.h264-LATE.mkv
Format : Matroska
Format version : Version 4
File size : 4.40 GiB
Duration : 3 h 51 min
Overall bit rate mode : Variable
Overall bit rate : 2 722 kb/s

Video
ID : 1
Format : AVC
Format/Info : Advanced Video
Duration : 3 h 51 min
Bit rate mode : Variable
Bit rate : 2 530 kb/s
Maximum bit rate : 8 000 kb/s
Width : 1 280 pixels
Height : 720 pixels
Display aspect ratio : 16:9
Frame rate mode : Constant
Frame rate : 29.970 (30000/1001) FPS
Color space : YUV
Chroma subsampling : 4:2:0
Bit depth : 8 bits
Scan type : Progressive
Bits/(Pixel*Frame) : 0.092
Stream size : 4.09 GiB (93%)
Default : Yes
Forced : No
Color range : Limited
Color primaries : BT.709
Transfer characteristics : BT.709
Matrix coefficients : BT.709

NOAH Muta The World English

Audio
ID : 2
Format : AAC LC
Format/Info : Advanced Audio
Codec ID : A_AAC-2
Duration : 3 h 51 min
Bit rate : 192 kb/s
Channel(s) : 2 channels
Channel layout : L R
Sampling rate : 48.0 kHz
Frame rate : 46.875 FPS (1024 SPF)
Compression mode : Lossy
Delay relative to video : 14 ms
Stream size : 313 MiB (7%)
Default : Yes
Forced : No

Complete name : NOAH.2021.06.27.Muta.The.World.ENGLISH.1080p.WEB.h264-LATE.mkv
Format : Matroska
Format version : Version 4
File size : 10.6 GiB
Duration : 3 h 51 min
Overall bit rate mode : Variable
Overall bit rate : 6 533 kb/s

NOAH Muta The World English

Video
ID : 1
Format : AVC
Duration : 3 h 51 min
Bit rate mode : Variable
Bit rate : 6 149 kb/s
Maximum bit rate : 18.0 Mb/s
Width : 1 920 pixels
Height : 1 080 pixels
Display aspect ratio : 16:9
Frame rate mode : Constant
Frame rate : 29.970 (30000/1001) FPS
Color space : YUV
Chroma subsampling : 4:2:0
Bit depth : 8 bits
Scan type : Progressive
Bits/(Pixel*Frame) : 0.099
Stream size : 9.93 GiB (94%)
Default : Yes
Forced : No
Color range : Limited
Color primaries : BT.709
Transfer characteristics : BT.709
Matrix coefficients : BT.709

Audio
ID : 2
Format : AAC LC
Format/Info : Advanced Audio
Codec ID : A_AAC-2
Duration : 3 h 51 min
Bit rate : 384 kb/s
Channel(s) : 2 channels
Channel layout : L R
Sampling rate : 48.0 kHz
Frame rate : 46.875 FPS (1024 SPF)
Compression mode : Lossy
Delay relative to video : 14 ms
Stream size : 631 MiB (6%)
Default : Yes
Forced : No

NOAH Muta The World English

Complete name : NOAH.2021.06.27.Muta.The.World.ENGLISH.WEB.h264-LATE.mkv
Format : Matroska
Format version : Version 4
File size : 2.17 GiB
Duration : 3 h 51 min
Overall bit rate mode : Variable
Overall bit rate : 1 344 kb/s

Video
ID : 1
Format : AVC
Format/Info : Advanced Video
Duration : 3 h 51 min
Bit rate mode : Variable
Bit rate : 1 216 kb/s
Maximum bit rate : 4 000 kb/s
Width : 960 pixels
Height : 540 pixels
Display aspect ratio : 16:9
Frame rate mode : Constant
Frame rate : 29.970 (30000/1001) FPS
Color space : YUV
Chroma subsampling : 4:2:0
Bit depth : 8 bits
Scan type : Progressive
Bits/(Pixel*Frame) : 0.078
Stream size : 1.96 GiB (90%)
Default : Yes
Forced : No
Color range : Limited
Color primaries : BT.709
Transfer characteristics : BT.709
Matrix coefficients : BT.709

NOAH Muta The World English

Audio
ID : 2
Format : AAC LC
Format/Info : Advanced Audio
Codec ID : A_AAC-2
Duration : 3 h 51 min
Bit rate : 125 kb/s
Channel(s) : 2 channels
Channel layout : L R
Sampling rate : 48.0 kHz
Frame rate : 46.875 FPS (1024 SPF)
Compression mode : Lossy
Delay relative to video : 14 ms
Stream size : 207 MiB (9%)
Default : Yes
Forced : No

NOAH Muta The World English

Complete name : NOAH.2021.06.27.Muta.The.World.ENGLISH.720p.WEB.h264-LATE.mkv
Format : Matroska
Format version : Version 4
File size : 4.40 GiB
Duration : 3 h 51 min
Overall bit rate mode : Variable
Overall bit rate : 2 722 kb/s

Video
ID : 1
Format : AVC
Format/Info : Advanced Video
Duration : 3 h 51 min
Bit rate mode : Variable
Bit rate : 2 530 kb/s
Maximum bit rate : 8 000 kb/s
Width : 1 280 pixels
Height : 720 pixels
Display aspect ratio : 16:9
Frame rate mode : Constant
Frame rate : 29.970 (30000/1001) FPS
Color space : YUV
Chroma subsampling : 4:2:0
Bit depth : 8 bits
Scan type : Progressive
Bits/(Pixel*Frame) : 0.092
Stream size : 4.09 GiB (93%)
Default : Yes
Forced : No
Color range : Limited
Color primaries : BT.709
Transfer characteristics : BT.709
Matrix coefficients : BT.709

NOAH Muta The World English

Audio
ID : 2
Format : AAC LC
Format/Info : Advanced Audio
Codec ID : A_AAC-2
Duration : 3 h 51 min
Bit rate : 192 kb/s
Channel(s) : 2 channels
Channel layout : L R
Sampling rate : 48.0 kHz
Frame rate : 46.875 FPS (1024 SPF)
Compression mode : Lossy
Delay relative to video : 14 ms
Stream size : 313 MiB (7%)
Default : Yes
Forced : No

Complete name : NOAH.2021.06.27.Muta.The.World.ENGLISH.1080p.WEB.h264-LATE.mkv
Format : Matroska
Format version : Version 4
File size : 10.6 GiB
Duration : 3 h 51 min
Overall bit rate mode : Variable
Overall bit rate : 6 533 kb/s

NOAH Muta The World English

Video
ID : 1
Format : AVC
Duration : 3 h 51 min
Bit rate mode : Variable
Bit rate : 6 149 kb/s
Maximum bit rate : 18.0 Mb/s
Width : 1 920 pixels
Height : 1 080 pixels
Display aspect ratio : 16:9
Frame rate mode : Constant
Frame rate : 29.970 (30000/1001) FPS
Color space : YUV
Chroma subsampling : 4:2:0
Bit depth : 8 bits
Scan type : Progressive
Bits/(Pixel*Frame) : 0.099
Stream size : 9.93 GiB (94%)
Default : Yes
Forced : No
Color range : Limited
Color primaries : BT.709
Transfer characteristics : BT.709
Matrix coefficients : BT.709

Audio
ID : 2
Format : AAC LC
Format/Info : Advanced Audio
Codec ID : A_AAC-2
Duration : 3 h 51 min
Bit rate : 384 kb/s
Channel(s) : 2 channels
Channel layout : L R
Sampling rate : 48.0 kHz
Frame rate : 46.875 FPS (1024 SPF)
Compression mode : Lossy
Delay relative to video : 14 ms
Stream size : 631 MiB (6%)
Default : Yes
Forced : No

NOAH Muta The World English

Complete name : NOAH.2021.06.27.Muta.The.World.ENGLISH.WEB.h264-LATE.mkv
Format : Matroska
Format version : Version 4
File size : 2.17 GiB
Duration : 3 h 51 min
Overall bit rate mode : Variable
Overall bit rate : 1 344 kb/s

Video
ID : 1
Format : AVC
Format/Info : Advanced Video
Duration : 3 h 51 min
Bit rate mode : Variable
Bit rate : 1 216 kb/s
Maximum bit rate : 4 000 kb/s
Width : 960 pixels
Height : 540 pixels
Display aspect ratio : 16:9
Frame rate mode : Constant
Frame rate : 29.970 (30000/1001) FPS
Color space : YUV
Chroma subsampling : 4:2:0
Bit depth : 8 bits
Scan type : Progressive
Bits/(Pixel*Frame) : 0.078
Stream size : 1.96 GiB (90%)
Default : Yes
Forced : No
Color range : Limited
Color primaries : BT.709
Transfer characteristics : BT.709
Matrix coefficients : BT.709

NOAH Muta The World English

Audio
ID : 2
Format : AAC LC
Format/Info : Advanced Audio
Codec ID : A_AAC-2
Duration : 3 h 51 min
Bit rate : 125 kb/s
Channel(s) : 2 channels
Channel layout : L R
Sampling rate : 48.0 kHz
Frame rate : 46.875 FPS (1024 SPF)
Compression mode : Lossy
Delay relative to video : 14 ms
Stream size : 207 MiB (9%)
Default : Yes
Forced : No

NOAH Muta The World English

Complete name : NOAH.2021.06.27.Muta.The.World.ENGLISH.720p.WEB.h264-LATE.mkv
Format : Matroska
Format version : Version 4
File size : 4.40 GiB
Duration : 3 h 51 min
Overall bit rate mode : Variable
Overall bit rate : 2 722 kb/s

Video
ID : 1
Format : AVC
Format/Info : Advanced Video
Duration : 3 h 51 min
Bit rate mode : Variable
Bit rate : 2 530 kb/s
Maximum bit rate : 8 000 kb/s
Width : 1 280 pixels
Height : 720 pixels
Display aspect ratio : 16:9
Frame rate mode : Constant
Frame rate : 29.970 (30000/1001) FPS
Color space : YUV
Chroma subsampling : 4:2:0
Bit depth : 8 bits
Scan type : Progressive
Bits/(Pixel*Frame) : 0.092
Stream size : 4.09 GiB (93%)
Default : Yes
Forced : No
Color range : Limited
Color primaries : BT.709
Transfer characteristics : BT.709
Matrix coefficients : BT.709

NOAH Muta The World English

Audio
ID : 2
Format : AAC LC
Format/Info : Advanced Audio
Codec ID : A_AAC-2
Duration : 3 h 51 min
Bit rate : 192 kb/s
Channel(s) : 2 channels
Channel layout : L R
Sampling rate : 48.0 kHz
Frame rate : 46.875 FPS (1024 SPF)
Compression mode : Lossy
Delay relative to video : 14 ms
Stream size : 313 MiB (7%)
Default : Yes
Forced : No

Complete name : NOAH.2021.06.27.Muta.The.World.ENGLISH.1080p.WEB.h264-LATE.mkv
Format : Matroska
Format version : Version 4
File size : 10.6 GiB
Duration : 3 h 51 min
Overall bit rate mode : Variable
Overall bit rate : 6 533 kb/s

NOAH Muta The World English

Video
ID : 1
Format : AVC
Duration : 3 h 51 min
Bit rate mode : Variable
Bit rate : 6 149 kb/s
Maximum bit rate : 18.0 Mb/s
Width : 1 920 pixels
Height : 1 080 pixels
Display aspect ratio : 16:9
Frame rate mode : Constant
Frame rate : 29.970 (30000/1001) FPS
Color space : YUV
Chroma subsampling : 4:2:0
Bit depth : 8 bits
Scan type : Progressive
Bits/(Pixel*Frame) : 0.099
Stream size : 9.93 GiB (94%)
Default : Yes
Forced : No
Color range : Limited
Color primaries : BT.709
Transfer characteristics : BT.709
Matrix coefficients : BT.709

Audio
ID : 2
Format : AAC LC
Format/Info : Advanced Audio
Codec ID : A_AAC-2
Duration : 3 h 51 min
Bit rate : 384 kb/s
Channel(s) : 2 channels
Channel layout : L R
Sampling rate : 48.0 kHz
Frame rate : 46.875 FPS (1024 SPF)
Compression mode : Lossy
Delay relative to video : 14 ms
Stream size : 631 MiB (6%)
Default : Yes
Forced : No

NOAH Muta The World English

Complete name : NOAH.2021.06.27.Muta.The.World.ENGLISH.WEB.h264-LATE.mkv
Format : Matroska
Format version : Version 4
File size : 2.17 GiB
Duration : 3 h 51 min
Overall bit rate mode : Variable
Overall bit rate : 1 344 kb/s

Video
ID : 1
Format : AVC
Format/Info : Advanced Video
Duration : 3 h 51 min
Bit rate mode : Variable
Bit rate : 1 216 kb/s
Maximum bit rate : 4 000 kb/s
Width : 960 pixels
Height : 540 pixels
Display aspect ratio : 16:9
Frame rate mode : Constant
Frame rate : 29.970 (30000/1001) FPS
Color space : YUV
Chroma subsampling : 4:2:0
Bit depth : 8 bits
Scan type : Progressive
Bits/(Pixel*Frame) : 0.078
Stream size : 1.96 GiB (90%)
Default : Yes
Forced : No
Color range : Limited
Color primaries : BT.709
Transfer characteristics : BT.709
Matrix coefficients : BT.709

NOAH Muta The World English

Audio
ID : 2
Format : AAC LC
Format/Info : Advanced Audio
Codec ID : A_AAC-2
Duration : 3 h 51 min
Bit rate : 125 kb/s
Channel(s) : 2 channels
Channel layout : L R
Sampling rate : 48.0 kHz
Frame rate : 46.875 FPS (1024 SPF)
Compression mode : Lossy
Delay relative to video : 14 ms
Stream size : 207 MiB (9%)
Default : Yes
Forced : No

NOAH Muta The World English

Complete name : NOAH.2021.06.27.Muta.The.World.ENGLISH.720p.WEB.h264-LATE.mkv
Format : Matroska
Format version : Version 4
File size : 4.40 GiB
Duration : 3 h 51 min
Overall bit rate mode : Variable
Overall bit rate : 2 722 kb/s

Video
ID : 1
Format : AVC
Format/Info : Advanced Video
Duration : 3 h 51 min
Bit rate mode : Variable
Bit rate : 2 530 kb/s
Maximum bit rate : 8 000 kb/s
Width : 1 280 pixels
Height : 720 pixels
Display aspect ratio : 16:9
Frame rate mode : Constant
Frame rate : 29.970 (30000/1001) FPS
Color space : YUV
Chroma subsampling : 4:2:0
Bit depth : 8 bits
Scan type : Progressive
Bits/(Pixel*Frame) : 0.092
Stream size : 4.09 GiB (93%)
Default : Yes
Forced : No
Color range : Limited
Color primaries : BT.709
Transfer characteristics : BT.709
Matrix coefficients : BT.709

NOAH Muta The World English

Audio
ID : 2
Format : AAC LC
Format/Info : Advanced Audio
Codec ID : A_AAC-2
Duration : 3 h 51 min
Bit rate : 192 kb/s
Channel(s) : 2 channels
Channel layout : L R
Sampling rate : 48.0 kHz
Frame rate : 46.875 FPS (1024 SPF)
Compression mode : Lossy
Delay relative to video : 14 ms
Stream size : 313 MiB (7%)
Default : Yes
Forced : No

Complete name : NOAH.2021.06.27.Muta.The.World.ENGLISH.1080p.WEB.h264-LATE.mkv
Format : Matroska
Format version : Version 4
File size : 10.6 GiB
Duration : 3 h 51 min
Overall bit rate mode : Variable
Overall bit rate : 6 533 kb/s

NOAH Muta The World English

Video
ID : 1
Format : AVC
Duration : 3 h 51 min
Bit rate mode : Variable
Bit rate : 6 149 kb/s
Maximum bit rate : 18.0 Mb/s
Width : 1 920 pixels
Height : 1 080 pixels
Display aspect ratio : 16:9
Frame rate mode : Constant
Frame rate : 29.970 (30000/1001) FPS
Color space : YUV
Chroma subsampling : 4:2:0
Bit depth : 8 bits
Scan type : Progressive
Bits/(Pixel*Frame) : 0.099
Stream size : 9.93 GiB (94%)
Default : Yes
Forced : No
Color range : Limited
Color primaries : BT.709
Transfer characteristics : BT.709
Matrix coefficients : BT.709

Audio
ID : 2
Format : AAC LC
Format/Info : Advanced Audio
Codec ID : A_AAC-2
Duration : 3 h 51 min
Bit rate : 384 kb/s
Channel(s) : 2 channels
Channel layout : L R
Sampling rate : 48.0 kHz
Frame rate : 46.875 FPS (1024 SPF)
Compression mode : Lossy
Delay relative to video : 14 ms
Stream size : 631 MiB (6%)
Default : Yes
Forced : No

NOAH Muta The World English

Complete name : NOAH.2021.06.27.Muta.The.World.ENGLISH.WEB.h264-LATE.mkv
Format : Matroska
Format version : Version 4
File size : 2.17 GiB
Duration : 3 h 51 min
Overall bit rate mode : Variable
Overall bit rate : 1 344 kb/s

Video
ID : 1
Format : AVC
Format/Info : Advanced Video
Duration : 3 h 51 min
Bit rate mode : Variable
Bit rate : 1 216 kb/s
Maximum bit rate : 4 000 kb/s
Width : 960 pixels
Height : 540 pixels
Display aspect ratio : 16:9
Frame rate mode : Constant
Frame rate : 29.970 (30000/1001) FPS
Color space : YUV
Chroma subsampling : 4:2:0
Bit depth : 8 bits
Scan type : Progressive
Bits/(Pixel*Frame) : 0.078
Stream size : 1.96 GiB (90%)
Default : Yes
Forced : No
Color range : Limited
Color primaries : BT.709
Transfer characteristics : BT.709
Matrix coefficients : BT.709

NOAH Muta The World English

Audio
ID : 2
Format : AAC LC
Format/Info : Advanced Audio
Codec ID : A_AAC-2
Duration : 3 h 51 min
Bit rate : 125 kb/s
Channel(s) : 2 channels
Channel layout : L R
Sampling rate : 48.0 kHz
Frame rate : 46.875 FPS (1024 SPF)
Compression mode : Lossy
Delay relative to video : 14 ms
Stream size : 207 MiB (9%)
Default : Yes
Forced : No

NOAH Muta The World English

Complete name : NOAH.2021.06.27.Muta.The.World.ENGLISH.720p.WEB.h264-LATE.mkv
Format : Matroska
Format version : Version 4
File size : 4.40 GiB
Duration : 3 h 51 min
Overall bit rate mode : Variable
Overall bit rate : 2 722 kb/s

Video
ID : 1
Format : AVC
Format/Info : Advanced Video
Duration : 3 h 51 min
Bit rate mode : Variable
Bit rate : 2 530 kb/s
Maximum bit rate : 8 000 kb/s
Width : 1 280 pixels
Height : 720 pixels
Display aspect ratio : 16:9
Frame rate mode : Constant
Frame rate : 29.970 (30000/1001) FPS
Color space : YUV
Chroma subsampling : 4:2:0
Bit depth : 8 bits
Scan type : Progressive
Bits/(Pixel*Frame) : 0.092
Stream size : 4.09 GiB (93%)
Default : Yes
Forced : No
Color range : Limited
Color primaries : BT.709
Transfer characteristics : BT.709
Matrix coefficients : BT.709

NOAH Muta The World English

Audio
ID : 2
Format : AAC LC
Format/Info : Advanced Audio
Codec ID : A_AAC-2
Duration : 3 h 51 min
Bit rate : 192 kb/s
Channel(s) : 2 channels
Channel layout : L R
Sampling rate : 48.0 kHz
Frame rate : 46.875 FPS (1024 SPF)
Compression mode : Lossy
Delay relative to video : 14 ms
Stream size : 313 MiB (7%)
Default : Yes
Forced : No

Complete name : NOAH.2021.06.27.Muta.The.World.ENGLISH.1080p.WEB.h264-LATE.mkv
Format : Matroska
Format version : Version 4
File size : 10.6 GiB
Duration : 3 h 51 min
Overall bit rate mode : Variable
Overall bit rate : 6 533 kb/s

NOAH Muta The World English

Video
ID : 1
Format : AVC
Duration : 3 h 51 min
Bit rate mode : Variable
Bit rate : 6 149 kb/s
Maximum bit rate : 18.0 Mb/s
Width : 1 920 pixels
Height : 1 080 pixels
Display aspect ratio : 16:9
Frame rate mode : Constant
Frame rate : 29.970 (30000/1001) FPS
Color space : YUV
Chroma subsampling : 4:2:0
Bit depth : 8 bits
Scan type : Progressive
Bits/(Pixel*Frame) : 0.099
Stream size : 9.93 GiB (94%)
Default : Yes
Forced : No
Color range : Limited
Color primaries : BT.709
Transfer characteristics : BT.709
Matrix coefficients : BT.709

Audio
ID : 2
Format : AAC LC
Format/Info : Advanced Audio
Codec ID : A_AAC-2
Duration : 3 h 51 min
Bit rate : 384 kb/s
Channel(s) : 2 channels
Channel layout : L R
Sampling rate : 48.0 kHz
Frame rate : 46.875 FPS (1024 SPF)
Compression mode : Lossy
Delay relative to video : 14 ms
Stream size : 631 MiB (6%)
Default : Yes
Forced : No

NOAH Muta The World English

Complete name : NOAH.2021.06.27.Muta.The.World.ENGLISH.WEB.h264-LATE.mkv
Format : Matroska
Format version : Version 4
File size : 2.17 GiB
Duration : 3 h 51 min
Overall bit rate mode : Variable
Overall bit rate : 1 344 kb/s

Video
ID : 1
Format : AVC
Format/Info : Advanced Video
Duration : 3 h 51 min
Bit rate mode : Variable
Bit rate : 1 216 kb/s
Maximum bit rate : 4 000 kb/s
Width : 960 pixels
Height : 540 pixels
Display aspect ratio : 16:9
Frame rate mode : Constant
Frame rate : 29.970 (30000/1001) FPS
Color space : YUV
Chroma subsampling : 4:2:0
Bit depth : 8 bits
Scan type : Progressive
Bits/(Pixel*Frame) : 0.078
Stream size : 1.96 GiB (90%)
Default : Yes
Forced : No
Color range : Limited
Color primaries : BT.709
Transfer characteristics : BT.709
Matrix coefficients : BT.709

NOAH Muta The World English

Audio
ID : 2
Format : AAC LC
Format/Info : Advanced Audio
Codec ID : A_AAC-2
Duration : 3 h 51 min
Bit rate : 125 kb/s
Channel(s) : 2 channels
Channel layout : L R
Sampling rate : 48.0 kHz
Frame rate : 46.875 FPS (1024 SPF)
Compression mode : Lossy
Delay relative to video : 14 ms
Stream size : 207 MiB (9%)
Default : Yes
Forced : No

NOAH Muta The World English

Complete name : NOAH.2021.06.27.Muta.The.World.ENGLISH.720p.WEB.h264-LATE.mkv
Format : Matroska
Format version : Version 4
File size : 4.40 GiB
Duration : 3 h 51 min
Overall bit rate mode : Variable
Overall bit rate : 2 722 kb/s

Video
ID : 1
Format : AVC
Format/Info : Advanced Video
Duration : 3 h 51 min
Bit rate mode : Variable
Bit rate : 2 530 kb/s
Maximum bit rate : 8 000 kb/s
Width : 1 280 pixels
Height : 720 pixels
Display aspect ratio : 16:9
Frame rate mode : Constant
Frame rate : 29.970 (30000/1001) FPS
Color space : YUV
Chroma subsampling : 4:2:0
Bit depth : 8 bits
Scan type : Progressive
Bits/(Pixel*Frame) : 0.092
Stream size : 4.09 GiB (93%)
Default : Yes
Forced : No
Color range : Limited
Color primaries : BT.709
Transfer characteristics : BT.709
Matrix coefficients : BT.709

NOAH Muta The World English

Audio
ID : 2
Format : AAC LC
Format/Info : Advanced Audio
Codec ID : A_AAC-2
Duration : 3 h 51 min
Bit rate : 192 kb/s
Channel(s) : 2 channels
Channel layout : L R
Sampling rate : 48.0 kHz
Frame rate : 46.875 FPS (1024 SPF)
Compression mode : Lossy
Delay relative to video : 14 ms
Stream size : 313 MiB (7%)
Default : Yes
Forced : No

Complete name : NOAH.2021.06.27.Muta.The.World.ENGLISH.1080p.WEB.h264-LATE.mkv
Format : Matroska
Format version : Version 4
File size : 10.6 GiB
Duration : 3 h 51 min
Overall bit rate mode : Variable
Overall bit rate : 6 533 kb/s

NOAH Muta The World English

Video
ID : 1
Format : AVC
Duration : 3 h 51 min
Bit rate mode : Variable
Bit rate : 6 149 kb/s
Maximum bit rate : 18.0 Mb/s
Width : 1 920 pixels
Height : 1 080 pixels
Display aspect ratio : 16:9
Frame rate mode : Constant
Frame rate : 29.970 (30000/1001) FPS
Color space : YUV
Chroma subsampling : 4:2:0
Bit depth : 8 bits
Scan type : Progressive
Bits/(Pixel*Frame) : 0.099
Stream size : 9.93 GiB (94%)
Default : Yes
Forced : No
Color range : Limited
Color primaries : BT.709
Transfer characteristics : BT.709
Matrix coefficients : BT.709

Audio
ID : 2
Format : AAC LC
Format/Info : Advanced Audio
Codec ID : A_AAC-2
Duration : 3 h 51 min
Bit rate : 384 kb/s
Channel(s) : 2 channels
Channel layout : L R
Sampling rate : 48.0 kHz
Frame rate : 46.875 FPS (1024 SPF)
Compression mode : Lossy
Delay relative to video : 14 ms
Stream size : 631 MiB (6%)
Default : Yes
Forced : No

NOAH Muta The World English

Complete name : NOAH.2021.06.27.Muta.The.World.ENGLISH.WEB.h264-LATE.mkv
Format : Matroska
Format version : Version 4
File size : 2.17 GiB
Duration : 3 h 51 min
Overall bit rate mode : Variable
Overall bit rate : 1 344 kb/s

Video
ID : 1
Format : AVC
Format/Info : Advanced Video
Duration : 3 h 51 min
Bit rate mode : Variable
Bit rate : 1 216 kb/s
Maximum bit rate : 4 000 kb/s
Width : 960 pixels
Height : 540 pixels
Display aspect ratio : 16:9
Frame rate mode : Constant
Frame rate : 29.970 (30000/1001) FPS
Color space : YUV
Chroma subsampling : 4:2:0
Bit depth : 8 bits
Scan type : Progressive
Bits/(Pixel*Frame) : 0.078
Stream size : 1.96 GiB (90%)
Default : Yes
Forced : No
Color range : Limited
Color primaries : BT.709
Transfer characteristics : BT.709
Matrix coefficients : BT.709

NOAH Muta The World English

Audio
ID : 2
Format : AAC LC
Format/Info : Advanced Audio
Codec ID : A_AAC-2
Duration : 3 h 51 min
Bit rate : 125 kb/s
Channel(s) : 2 channels
Channel layout : L R
Sampling rate : 48.0 kHz
Frame rate : 46.875 FPS (1024 SPF)
Compression mode : Lossy
Delay relative to video : 14 ms
Stream size : 207 MiB (9%)
Default : Yes
Forced : No

NOAH Muta The World English

Complete name : NOAH.2021.06.27.Muta.The.World.ENGLISH.720p.WEB.h264-LATE.mkv
Format : Matroska
Format version : Version 4
File size : 4.40 GiB
Duration : 3 h 51 min
Overall bit rate mode : Variable
Overall bit rate : 2 722 kb/s

Video
ID : 1
Format : AVC
Format/Info : Advanced Video
Duration : 3 h 51 min
Bit rate mode : Variable
Bit rate : 2 530 kb/s
Maximum bit rate : 8 000 kb/s
Width : 1 280 pixels
Height : 720 pixels
Display aspect ratio : 16:9
Frame rate mode : Constant
Frame rate : 29.970 (30000/1001) FPS
Color space : YUV
Chroma subsampling : 4:2:0
Bit depth : 8 bits
Scan type : Progressive
Bits/(Pixel*Frame) : 0.092
Stream size : 4.09 GiB (93%)
Default : Yes
Forced : No
Color range : Limited
Color primaries : BT.709
Transfer characteristics : BT.709
Matrix coefficients : BT.709

NOAH Muta The World English

Audio
ID : 2
Format : AAC LC
Format/Info : Advanced Audio
Codec ID : A_AAC-2
Duration : 3 h 51 min
Bit rate : 192 kb/s
Channel(s) : 2 channels
Channel layout : L R
Sampling rate : 48.0 kHz
Frame rate : 46.875 FPS (1024 SPF)
Compression mode : Lossy
Delay relative to video : 14 ms
Stream size : 313 MiB (7%)
Default : Yes
Forced : No

Complete name : NOAH.2021.06.27.Muta.The.World.ENGLISH.1080p.WEB.h264-LATE.mkv
Format : Matroska
Format version : Version 4
File size : 10.6 GiB
Duration : 3 h 51 min
Overall bit rate mode : Variable
Overall bit rate : 6 533 kb/s

NOAH Muta The World English

Video
ID : 1
Format : AVC
Duration : 3 h 51 min
Bit rate mode : Variable
Bit rate : 6 149 kb/s
Maximum bit rate : 18.0 Mb/s
Width : 1 920 pixels
Height : 1 080 pixels
Display aspect ratio : 16:9
Frame rate mode : Constant
Frame rate : 29.970 (30000/1001) FPS
Color space : YUV
Chroma subsampling : 4:2:0
Bit depth : 8 bits
Scan type : Progressive
Bits/(Pixel*Frame) : 0.099
Stream size : 9.93 GiB (94%)
Default : Yes
Forced : No
Color range : Limited
Color primaries : BT.709
Transfer characteristics : BT.709
Matrix coefficients : BT.709

Audio
ID : 2
Format : AAC LC
Format/Info : Advanced Audio
Codec ID : A_AAC-2
Duration : 3 h 51 min
Bit rate : 384 kb/s
Channel(s) : 2 channels
Channel layout : L R
Sampling rate : 48.0 kHz
Frame rate : 46.875 FPS (1024 SPF)
Compression mode : Lossy
Delay relative to video : 14 ms
Stream size : 631 MiB (6%)
Default : Yes
Forced : No

NOAH Muta The World English

Complete name : NOAH.2021.06.27.Muta.The.World.ENGLISH.WEB.h264-LATE.mkv
Format : Matroska
Format version : Version 4
File size : 2.17 GiB
Duration : 3 h 51 min
Overall bit rate mode : Variable
Overall bit rate : 1 344 kb/s

Video
ID : 1
Format : AVC
Format/Info : Advanced Video
Duration : 3 h 51 min
Bit rate mode : Variable
Bit rate : 1 216 kb/s
Maximum bit rate : 4 000 kb/s
Width : 960 pixels
Height : 540 pixels
Display aspect ratio : 16:9
Frame rate mode : Constant
Frame rate : 29.970 (30000/1001) FPS
Color space : YUV
Chroma subsampling : 4:2:0
Bit depth : 8 bits
Scan type : Progressive
Bits/(Pixel*Frame) : 0.078
Stream size : 1.96 GiB (90%)
Default : Yes
Forced : No
Color range : Limited
Color primaries : BT.709
Transfer characteristics : BT.709
Matrix coefficients : BT.709

NOAH Muta The World English

Audio
ID : 2
Format : AAC LC
Format/Info : Advanced Audio
Codec ID : A_AAC-2
Duration : 3 h 51 min
Bit rate : 125 kb/s
Channel(s) : 2 channels
Channel layout : L R
Sampling rate : 48.0 kHz
Frame rate : 46.875 FPS (1024 SPF)
Compression mode : Lossy
Delay relative to video : 14 ms
Stream size : 207 MiB (9%)
Default : Yes
Forced : No

NOAH Muta The World English

Complete name : NOAH.2021.06.27.Muta.The.World.ENGLISH.720p.WEB.h264-LATE.mkv
Format : Matroska
Format version : Version 4
File size : 4.40 GiB
Duration : 3 h 51 min
Overall bit rate mode : Variable
Overall bit rate : 2 722 kb/s

Video
ID : 1
Format : AVC
Format/Info : Advanced Video
Duration : 3 h 51 min
Bit rate mode : Variable
Bit rate : 2 530 kb/s
Maximum bit rate : 8 000 kb/s
Width : 1 280 pixels
Height : 720 pixels
Display aspect ratio : 16:9
Frame rate mode : Constant
Frame rate : 29.970 (30000/1001) FPS
Color space : YUV
Chroma subsampling : 4:2:0
Bit depth : 8 bits
Scan type : Progressive
Bits/(Pixel*Frame) : 0.092
Stream size : 4.09 GiB (93%)
Default : Yes
Forced : No
Color range : Limited
Color primaries : BT.709
Transfer characteristics : BT.709
Matrix coefficients : BT.709

NOAH Muta The World English

Audio
ID : 2
Format : AAC LC
Format/Info : Advanced Audio
Codec ID : A_AAC-2
Duration : 3 h 51 min
Bit rate : 192 kb/s
Channel(s) : 2 channels
Channel layout : L R
Sampling rate : 48.0 kHz
Frame rate : 46.875 FPS (1024 SPF)
Compression mode : Lossy
Delay relative to video : 14 ms
Stream size : 313 MiB (7%)
Default : Yes
Forced : No

Complete name : NOAH.2021.06.27.Muta.The.World.ENGLISH.1080p.WEB.h264-LATE.mkv
Format : Matroska
Format version : Version 4
File size : 10.6 GiB
Duration : 3 h 51 min
Overall bit rate mode : Variable
Overall bit rate : 6 533 kb/s

NOAH Muta The World English

Video
ID : 1
Format : AVC
Duration : 3 h 51 min
Bit rate mode : Variable
Bit rate : 6 149 kb/s
Maximum bit rate : 18.0 Mb/s
Width : 1 920 pixels
Height : 1 080 pixels
Display aspect ratio : 16:9
Frame rate mode : Constant
Frame rate : 29.970 (30000/1001) FPS
Color space : YUV
Chroma subsampling : 4:2:0
Bit depth : 8 bits
Scan type : Progressive
Bits/(Pixel*Frame) : 0.099
Stream size : 9.93 GiB (94%)
Default : Yes
Forced : No
Color range : Limited
Color primaries : BT.709
Transfer characteristics : BT.709
Matrix coefficients : BT.709

Audio
ID : 2
Format : AAC LC
Format/Info : Advanced Audio
Codec ID : A_AAC-2
Duration : 3 h 51 min
Bit rate : 384 kb/s
Channel(s) : 2 channels
Channel layout : L R
Sampling rate : 48.0 kHz
Frame rate : 46.875 FPS (1024 SPF)
Compression mode : Lossy
Delay relative to video : 14 ms
Stream size : 631 MiB (6%)
Default : Yes
Forced : No

NOAH Muta The World English

Complete name : NOAH.2021.06.27.Muta.The.World.ENGLISH.WEB.h264-LATE.mkv
Format : Matroska
Format version : Version 4
File size : 2.17 GiB
Duration : 3 h 51 min
Overall bit rate mode : Variable
Overall bit rate : 1 344 kb/s

Video
ID : 1
Format : AVC
Format/Info : Advanced Video
Duration : 3 h 51 min
Bit rate mode : Variable
Bit rate : 1 216 kb/s
Maximum bit rate : 4 000 kb/s
Width : 960 pixels
Height : 540 pixels
Display aspect ratio : 16:9
Frame rate mode : Constant
Frame rate : 29.970 (30000/1001) FPS
Color space : YUV
Chroma subsampling : 4:2:0
Bit depth : 8 bits
Scan type : Progressive
Bits/(Pixel*Frame) : 0.078
Stream size : 1.96 GiB (90%)
Default : Yes
Forced : No
Color range : Limited
Color primaries : BT.709
Transfer characteristics : BT.709
Matrix coefficients : BT.709

NOAH Muta The World English

Audio
ID : 2
Format : AAC LC
Format/Info : Advanced Audio
Codec ID : A_AAC-2
Duration : 3 h 51 min
Bit rate : 125 kb/s
Channel(s) : 2 channels
Channel layout : L R
Sampling rate : 48.0 kHz
Frame rate : 46.875 FPS (1024 SPF)
Compression mode : Lossy
Delay relative to video : 14 ms
Stream size : 207 MiB (9%)
Default : Yes
Forced : No

NOAH Muta The World English

 

[collapse]

 

 

https://dx-tv.com/

Leave a Reply

Your email address will not be published. Required fields are marked *

This site uses Akismet to reduce spam. Learn how your comment data is processed.

Previous Post
BKFC 18

BKFC 18 English 720p Online Free Replay

Next Post
wwe raw

WWE RAW Full Show Free Live 2021 06 28