NOAH Kawasaki Go 2021 08 15 Online Free Replay

NOAH Kawasaki Go 2021 08 15 Online Free Replay DX-TV

Contents show

NOAH Kawasaki Go 2021

 NOAH Kawasaki Go 2021

 

 

 

Download Links with premium High Speed


 

Dopapk

 

 

Show Links

 

http://shrt10.com/kFDvugb
http://shrt10.com/ztyAUlKk2
http://shrt10.com/1AefGaJLv

 

[collapse]

 

 

Nitroflare

 

 

Show Links

 

http://shrt10.com/uzWHyXmIm
http://shrt10.com/b5tDuu2
http://shrt10.com/hvzqBqrSy

 

[collapse]

 

 

Rapidgator

 

 

Show Links

 

http://shrt10.com/1l8Y6Vn
http://shrt10.com/fDL581H
http://shrt10.com/HOdBt20

 

[collapse]

 

 

Uploaded

 

 

Show Links

 

http://shrt10.com/4RkO0r3B
http://shrt10.com/GjM9dHHs

 

[collapse]

 

 

Watch online

 

Server 1

 

 

 

 

NOAH Kawasaki Go 2021

 

 

 

 

Server-2

 

 

 

 

watch now

 

 

 

|Server-3

 

 

 

 

watch now

 

 

Uploaded By Site DX-TV.com

 

 

Show Info This Show

NOAH Kawasaki Go 2021

 

Complete name : NOAH.2021.08.15.Kawasaki.Go.2021.ENGLISH.WEB.h264-LATE.mkv
Format : Matroska
Format version : Version 4
File size : 2.12 GiB
Duration : 3 h 56 min
Overall bit rate mode : Variable
Overall bit rate : 1 284 kb/s
Video
ID : 1
Format : AVC
Format/Info : Advanced Video
Duration : 3 h 56 min
Bit rate mode : Variable
Bit rate : 1 156 kb/s
Maximum bit rate : 4 000 kb/s
Width : 960 pixels
Height : 540 pixels
Display aspect ratio : 16:9
Frame rate mode : Constant
Frame rate : 29.970 (30000/1001) FPS
Color space : YUV
Chroma subsampling : 4:2:0
Bit depth : 8 bits
Scan type : Progressive
Bits/(Pixel*Frame) : 0.074
Stream size : 1.91 GiB (90%)
Default : Yes
Forced : No
Color range : Limited
Color primaries : BT.709
Transfer characteristics : BT.709
Matrix coefficients : BT.709

NOAH Kawasaki Go 2021

Audio
ID : 2
Format : AAC LC
Format/Info : Advanced Audio
Codec ID : A_AAC-2
Duration : 3 h 56 min
Bit rate : 125 kb/s
Channel(s) : 2 channels
Channel layout : L R
Sampling rate : 48.0 kHz
Frame rate : 46.875 FPS (1024 SPF)
Compression mode : Lossy
Delay relative to video : 18 ms
Stream size : 212 MiB (10%)
Default : Yes
Forced : No

Complete name : NOAH.2021.08.15.Kawasaki.Go.2021.ENGLISH.1080p.WEB.h264-LATE.mkv
Format : Matroska
Format version : Version 4
File size : 10.2 GiB
Duration : 3 h 56 min
Overall bit rate mode : Variable
Overall bit rate : 6 187 kb/s

NOAH Kawasaki Go 2021

Video
ID : 1
Format : AVC
Format/Info : Advanced Video
Duration : 3 h 56 min
Bit rate mode : Variable
Bit rate : 5 803 kb/s
Maximum bit rate : 18.0 Mb/s
Width : 1 920 pixels
Height : 1 080 pixels
Display aspect ratio : 16:9
Frame rate mode : Constant
Frame rate : 29.970 (30000/1001) FPS
Color space : YUV
Chroma subsampling : 4:2:0
Bit depth : 8 bits
Scan type : Progressive
Bits/(Pixel*Frame) : 0.093
Stream size : 9.60 GiB (94%)
Default : Yes
Forced : No
Color range : Limited
Color primaries : BT.709
Transfer characteristics : BT.709
Matrix coefficients : BT.709

NOAH Kawasaki Go 2021

Audio
ID : 2
Format : AAC LC
Format/Info : Advanced Audio
Codec ID : A_AAC-2
Duration : 3 h 56 min
Bit rate : 384 kb/s
Channel(s) : 2 channels
Channel layout : L R
Sampling rate : 48.0 kHz
Frame rate : 46.875 FPS (1024 SPF)
Compression mode : Lossy
Delay relative to video : 18 ms
Stream size : 646 MiB (6%)
Default : Yes
Forced : No

Complete name : NOAH.2021.08.15.Kawasaki.Go.2021.ENGLISH.720p.WEB.h264-LATE.mkv
Format : Matroska
Format version : Version 4
File size : 4.41 GiB
Duration : 3 h 56 min
Overall bit rate mode : Variable
Overall bit rate : 2 667 kb/s

NOAH Kawasaki Go 2021

Video
ID : 1
Format : AVC
Format/Info : Advanced Video
Duration : 3 h 56 min
Bit rate mode : Variable
Bit rate : 2 475 kb/s
Maximum bit rate : 8 000 kb/s
Width : 1 280 pixels
Height : 720 pixels
Display aspect ratio : 16:9
Frame rate mode : Constant
Frame rate : 29.970 (30000/1001) FPS
Color space : YUV
Chroma subsampling : 4:2:0
Bit depth : 8 bits
Scan type : Progressive
Bits/(Pixel*Frame) : 0.090
Stream size : 4.09 GiB (93%)
Default : Yes
Forced : No
Color range : Limited
Color primaries : BT.709
Transfer characteristics : BT.709
Matrix coefficients : BT.709

NOAH Kawasaki Go 2021

Audio
ID : 2
Format : AAC LC
Format/Info : Advanced Audio
Codec ID : A_AAC-2
Duration : 3 h 56 min
Bit rate : 192 kb/s
Channel(s) : 2 channels
Channel layout : L R
Sampling rate : 48.0 kHz
Frame rate : 46.875 FPS (1024 SPF)
Compression mode : Lossy
Delay relative to video : 18 ms
Stream size : 321 MiB (7%)
Default : Yes
Forced : No

NOAH Kawasaki Go 2021

Complete name : NOAH.2021.08.15.Kawasaki.Go.2021.ENGLISH.WEB.h264-LATE.mkv
Format : Matroska
Format version : Version 4
File size : 2.12 GiB
Duration : 3 h 56 min
Overall bit rate mode : Variable
Overall bit rate : 1 284 kb/s
Video
ID : 1
Format : AVC
Format/Info : Advanced Video
Duration : 3 h 56 min
Bit rate mode : Variable
Bit rate : 1 156 kb/s
Maximum bit rate : 4 000 kb/s
Width : 960 pixels
Height : 540 pixels
Display aspect ratio : 16:9
Frame rate mode : Constant
Frame rate : 29.970 (30000/1001) FPS
Color space : YUV
Chroma subsampling : 4:2:0
Bit depth : 8 bits
Scan type : Progressive
Bits/(Pixel*Frame) : 0.074
Stream size : 1.91 GiB (90%)
Default : Yes
Forced : No
Color range : Limited
Color primaries : BT.709
Transfer characteristics : BT.709
Matrix coefficients : BT.709

NOAH Kawasaki Go 2021

Audio
ID : 2
Format : AAC LC
Format/Info : Advanced Audio
Codec ID : A_AAC-2
Duration : 3 h 56 min
Bit rate : 125 kb/s
Channel(s) : 2 channels
Channel layout : L R
Sampling rate : 48.0 kHz
Frame rate : 46.875 FPS (1024 SPF)
Compression mode : Lossy
Delay relative to video : 18 ms
Stream size : 212 MiB (10%)
Default : Yes
Forced : No

Complete name : NOAH.2021.08.15.Kawasaki.Go.2021.ENGLISH.1080p.WEB.h264-LATE.mkv
Format : Matroska
Format version : Version 4
File size : 10.2 GiB
Duration : 3 h 56 min
Overall bit rate mode : Variable
Overall bit rate : 6 187 kb/s

NOAH Kawasaki Go 2021

Video
ID : 1
Format : AVC
Format/Info : Advanced Video
Duration : 3 h 56 min
Bit rate mode : Variable
Bit rate : 5 803 kb/s
Maximum bit rate : 18.0 Mb/s
Width : 1 920 pixels
Height : 1 080 pixels
Display aspect ratio : 16:9
Frame rate mode : Constant
Frame rate : 29.970 (30000/1001) FPS
Color space : YUV
Chroma subsampling : 4:2:0
Bit depth : 8 bits
Scan type : Progressive
Bits/(Pixel*Frame) : 0.093
Stream size : 9.60 GiB (94%)
Default : Yes
Forced : No
Color range : Limited
Color primaries : BT.709
Transfer characteristics : BT.709
Matrix coefficients : BT.709

NOAH Kawasaki Go 2021

Audio
ID : 2
Format : AAC LC
Format/Info : Advanced Audio
Codec ID : A_AAC-2
Duration : 3 h 56 min
Bit rate : 384 kb/s
Channel(s) : 2 channels
Channel layout : L R
Sampling rate : 48.0 kHz
Frame rate : 46.875 FPS (1024 SPF)
Compression mode : Lossy
Delay relative to video : 18 ms
Stream size : 646 MiB (6%)
Default : Yes
Forced : No

Complete name : NOAH.2021.08.15.Kawasaki.Go.2021.ENGLISH.720p.WEB.h264-LATE.mkv
Format : Matroska
Format version : Version 4
File size : 4.41 GiB
Duration : 3 h 56 min
Overall bit rate mode : Variable
Overall bit rate : 2 667 kb/s

NOAH Kawasaki Go 2021

Video
ID : 1
Format : AVC
Format/Info : Advanced Video
Duration : 3 h 56 min
Bit rate mode : Variable
Bit rate : 2 475 kb/s
Maximum bit rate : 8 000 kb/s
Width : 1 280 pixels
Height : 720 pixels
Display aspect ratio : 16:9
Frame rate mode : Constant
Frame rate : 29.970 (30000/1001) FPS
Color space : YUV
Chroma subsampling : 4:2:0
Bit depth : 8 bits
Scan type : Progressive
Bits/(Pixel*Frame) : 0.090
Stream size : 4.09 GiB (93%)
Default : Yes
Forced : No
Color range : Limited
Color primaries : BT.709
Transfer characteristics : BT.709
Matrix coefficients : BT.709

NOAH Kawasaki Go 2021

Audio
ID : 2
Format : AAC LC
Format/Info : Advanced Audio
Codec ID : A_AAC-2
Duration : 3 h 56 min
Bit rate : 192 kb/s
Channel(s) : 2 channels
Channel layout : L R
Sampling rate : 48.0 kHz
Frame rate : 46.875 FPS (1024 SPF)
Compression mode : Lossy
Delay relative to video : 18 ms
Stream size : 321 MiB (7%)
Default : Yes
Forced : No

NOAH Kawasaki Go 2021

Complete name : NOAH.2021.08.15.Kawasaki.Go.2021.ENGLISH.WEB.h264-LATE.mkv
Format : Matroska
Format version : Version 4
File size : 2.12 GiB
Duration : 3 h 56 min
Overall bit rate mode : Variable
Overall bit rate : 1 284 kb/s
Video
ID : 1
Format : AVC
Format/Info : Advanced Video
Duration : 3 h 56 min
Bit rate mode : Variable
Bit rate : 1 156 kb/s
Maximum bit rate : 4 000 kb/s
Width : 960 pixels
Height : 540 pixels
Display aspect ratio : 16:9
Frame rate mode : Constant
Frame rate : 29.970 (30000/1001) FPS
Color space : YUV
Chroma subsampling : 4:2:0
Bit depth : 8 bits
Scan type : Progressive
Bits/(Pixel*Frame) : 0.074
Stream size : 1.91 GiB (90%)
Default : Yes
Forced : No
Color range : Limited
Color primaries : BT.709
Transfer characteristics : BT.709
Matrix coefficients : BT.709

NOAH Kawasaki Go 2021

Audio
ID : 2
Format : AAC LC
Format/Info : Advanced Audio
Codec ID : A_AAC-2
Duration : 3 h 56 min
Bit rate : 125 kb/s
Channel(s) : 2 channels
Channel layout : L R
Sampling rate : 48.0 kHz
Frame rate : 46.875 FPS (1024 SPF)
Compression mode : Lossy
Delay relative to video : 18 ms
Stream size : 212 MiB (10%)
Default : Yes
Forced : No

Complete name : NOAH.2021.08.15.Kawasaki.Go.2021.ENGLISH.1080p.WEB.h264-LATE.mkv
Format : Matroska
Format version : Version 4
File size : 10.2 GiB
Duration : 3 h 56 min
Overall bit rate mode : Variable
Overall bit rate : 6 187 kb/s

NOAH Kawasaki Go 2021

Video
ID : 1
Format : AVC
Format/Info : Advanced Video
Duration : 3 h 56 min
Bit rate mode : Variable
Bit rate : 5 803 kb/s
Maximum bit rate : 18.0 Mb/s
Width : 1 920 pixels
Height : 1 080 pixels
Display aspect ratio : 16:9
Frame rate mode : Constant
Frame rate : 29.970 (30000/1001) FPS
Color space : YUV
Chroma subsampling : 4:2:0
Bit depth : 8 bits
Scan type : Progressive
Bits/(Pixel*Frame) : 0.093
Stream size : 9.60 GiB (94%)
Default : Yes
Forced : No
Color range : Limited
Color primaries : BT.709
Transfer characteristics : BT.709
Matrix coefficients : BT.709

NOAH Kawasaki Go 2021

Audio
ID : 2
Format : AAC LC
Format/Info : Advanced Audio
Codec ID : A_AAC-2
Duration : 3 h 56 min
Bit rate : 384 kb/s
Channel(s) : 2 channels
Channel layout : L R
Sampling rate : 48.0 kHz
Frame rate : 46.875 FPS (1024 SPF)
Compression mode : Lossy
Delay relative to video : 18 ms
Stream size : 646 MiB (6%)
Default : Yes
Forced : No

Complete name : NOAH.2021.08.15.Kawasaki.Go.2021.ENGLISH.720p.WEB.h264-LATE.mkv
Format : Matroska
Format version : Version 4
File size : 4.41 GiB
Duration : 3 h 56 min
Overall bit rate mode : Variable
Overall bit rate : 2 667 kb/s

NOAH Kawasaki Go 2021

Video
ID : 1
Format : AVC
Format/Info : Advanced Video
Duration : 3 h 56 min
Bit rate mode : Variable
Bit rate : 2 475 kb/s
Maximum bit rate : 8 000 kb/s
Width : 1 280 pixels
Height : 720 pixels
Display aspect ratio : 16:9
Frame rate mode : Constant
Frame rate : 29.970 (30000/1001) FPS
Color space : YUV
Chroma subsampling : 4:2:0
Bit depth : 8 bits
Scan type : Progressive
Bits/(Pixel*Frame) : 0.090
Stream size : 4.09 GiB (93%)
Default : Yes
Forced : No
Color range : Limited
Color primaries : BT.709
Transfer characteristics : BT.709
Matrix coefficients : BT.709

NOAH Kawasaki Go 2021

Audio
ID : 2
Format : AAC LC
Format/Info : Advanced Audio
Codec ID : A_AAC-2
Duration : 3 h 56 min
Bit rate : 192 kb/s
Channel(s) : 2 channels
Channel layout : L R
Sampling rate : 48.0 kHz
Frame rate : 46.875 FPS (1024 SPF)
Compression mode : Lossy
Delay relative to video : 18 ms
Stream size : 321 MiB (7%)
Default : Yes
Forced : No

NOAH Kawasaki Go 2021

Complete name : NOAH.2021.08.15.Kawasaki.Go.2021.ENGLISH.WEB.h264-LATE.mkv
Format : Matroska
Format version : Version 4
File size : 2.12 GiB
Duration : 3 h 56 min
Overall bit rate mode : Variable
Overall bit rate : 1 284 kb/s
Video
ID : 1
Format : AVC
Format/Info : Advanced Video
Duration : 3 h 56 min
Bit rate mode : Variable
Bit rate : 1 156 kb/s
Maximum bit rate : 4 000 kb/s
Width : 960 pixels
Height : 540 pixels
Display aspect ratio : 16:9
Frame rate mode : Constant
Frame rate : 29.970 (30000/1001) FPS
Color space : YUV
Chroma subsampling : 4:2:0
Bit depth : 8 bits
Scan type : Progressive
Bits/(Pixel*Frame) : 0.074
Stream size : 1.91 GiB (90%)
Default : Yes
Forced : No
Color range : Limited
Color primaries : BT.709
Transfer characteristics : BT.709
Matrix coefficients : BT.709

NOAH Kawasaki Go 2021

Audio
ID : 2
Format : AAC LC
Format/Info : Advanced Audio
Codec ID : A_AAC-2
Duration : 3 h 56 min
Bit rate : 125 kb/s
Channel(s) : 2 channels
Channel layout : L R
Sampling rate : 48.0 kHz
Frame rate : 46.875 FPS (1024 SPF)
Compression mode : Lossy
Delay relative to video : 18 ms
Stream size : 212 MiB (10%)
Default : Yes
Forced : No

Complete name : NOAH.2021.08.15.Kawasaki.Go.2021.ENGLISH.1080p.WEB.h264-LATE.mkv
Format : Matroska
Format version : Version 4
File size : 10.2 GiB
Duration : 3 h 56 min
Overall bit rate mode : Variable
Overall bit rate : 6 187 kb/s

NOAH Kawasaki Go 2021

Video
ID : 1
Format : AVC
Format/Info : Advanced Video
Duration : 3 h 56 min
Bit rate mode : Variable
Bit rate : 5 803 kb/s
Maximum bit rate : 18.0 Mb/s
Width : 1 920 pixels
Height : 1 080 pixels
Display aspect ratio : 16:9
Frame rate mode : Constant
Frame rate : 29.970 (30000/1001) FPS
Color space : YUV
Chroma subsampling : 4:2:0
Bit depth : 8 bits
Scan type : Progressive
Bits/(Pixel*Frame) : 0.093
Stream size : 9.60 GiB (94%)
Default : Yes
Forced : No
Color range : Limited
Color primaries : BT.709
Transfer characteristics : BT.709
Matrix coefficients : BT.709

NOAH Kawasaki Go 2021

Audio
ID : 2
Format : AAC LC
Format/Info : Advanced Audio
Codec ID : A_AAC-2
Duration : 3 h 56 min
Bit rate : 384 kb/s
Channel(s) : 2 channels
Channel layout : L R
Sampling rate : 48.0 kHz
Frame rate : 46.875 FPS (1024 SPF)
Compression mode : Lossy
Delay relative to video : 18 ms
Stream size : 646 MiB (6%)
Default : Yes
Forced : No

Complete name : NOAH.2021.08.15.Kawasaki.Go.2021.ENGLISH.720p.WEB.h264-LATE.mkv
Format : Matroska
Format version : Version 4
File size : 4.41 GiB
Duration : 3 h 56 min
Overall bit rate mode : Variable
Overall bit rate : 2 667 kb/s

NOAH Kawasaki Go 2021

Video
ID : 1
Format : AVC
Format/Info : Advanced Video
Duration : 3 h 56 min
Bit rate mode : Variable
Bit rate : 2 475 kb/s
Maximum bit rate : 8 000 kb/s
Width : 1 280 pixels
Height : 720 pixels
Display aspect ratio : 16:9
Frame rate mode : Constant
Frame rate : 29.970 (30000/1001) FPS
Color space : YUV
Chroma subsampling : 4:2:0
Bit depth : 8 bits
Scan type : Progressive
Bits/(Pixel*Frame) : 0.090
Stream size : 4.09 GiB (93%)
Default : Yes
Forced : No
Color range : Limited
Color primaries : BT.709
Transfer characteristics : BT.709
Matrix coefficients : BT.709

NOAH Kawasaki Go 2021

Audio
ID : 2
Format : AAC LC
Format/Info : Advanced Audio
Codec ID : A_AAC-2
Duration : 3 h 56 min
Bit rate : 192 kb/s
Channel(s) : 2 channels
Channel layout : L R
Sampling rate : 48.0 kHz
Frame rate : 46.875 FPS (1024 SPF)
Compression mode : Lossy
Delay relative to video : 18 ms
Stream size : 321 MiB (7%)
Default : Yes
Forced : No

NOAH Kawasaki Go 2021

Complete name : NOAH.2021.08.15.Kawasaki.Go.2021.ENGLISH.WEB.h264-LATE.mkv
Format : Matroska
Format version : Version 4
File size : 2.12 GiB
Duration : 3 h 56 min
Overall bit rate mode : Variable
Overall bit rate : 1 284 kb/s
Video
ID : 1
Format : AVC
Format/Info : Advanced Video
Duration : 3 h 56 min
Bit rate mode : Variable
Bit rate : 1 156 kb/s
Maximum bit rate : 4 000 kb/s
Width : 960 pixels
Height : 540 pixels
Display aspect ratio : 16:9
Frame rate mode : Constant
Frame rate : 29.970 (30000/1001) FPS
Color space : YUV
Chroma subsampling : 4:2:0
Bit depth : 8 bits
Scan type : Progressive
Bits/(Pixel*Frame) : 0.074
Stream size : 1.91 GiB (90%)
Default : Yes
Forced : No
Color range : Limited
Color primaries : BT.709
Transfer characteristics : BT.709
Matrix coefficients : BT.709

NOAH Kawasaki Go 2021

Audio
ID : 2
Format : AAC LC
Format/Info : Advanced Audio
Codec ID : A_AAC-2
Duration : 3 h 56 min
Bit rate : 125 kb/s
Channel(s) : 2 channels
Channel layout : L R
Sampling rate : 48.0 kHz
Frame rate : 46.875 FPS (1024 SPF)
Compression mode : Lossy
Delay relative to video : 18 ms
Stream size : 212 MiB (10%)
Default : Yes
Forced : No

Complete name : NOAH.2021.08.15.Kawasaki.Go.2021.ENGLISH.1080p.WEB.h264-LATE.mkv
Format : Matroska
Format version : Version 4
File size : 10.2 GiB
Duration : 3 h 56 min
Overall bit rate mode : Variable
Overall bit rate : 6 187 kb/s

NOAH Kawasaki Go 2021

Video
ID : 1
Format : AVC
Format/Info : Advanced Video
Duration : 3 h 56 min
Bit rate mode : Variable
Bit rate : 5 803 kb/s
Maximum bit rate : 18.0 Mb/s
Width : 1 920 pixels
Height : 1 080 pixels
Display aspect ratio : 16:9
Frame rate mode : Constant
Frame rate : 29.970 (30000/1001) FPS
Color space : YUV
Chroma subsampling : 4:2:0
Bit depth : 8 bits
Scan type : Progressive
Bits/(Pixel*Frame) : 0.093
Stream size : 9.60 GiB (94%)
Default : Yes
Forced : No
Color range : Limited
Color primaries : BT.709
Transfer characteristics : BT.709
Matrix coefficients : BT.709

NOAH Kawasaki Go 2021

Audio
ID : 2
Format : AAC LC
Format/Info : Advanced Audio
Codec ID : A_AAC-2
Duration : 3 h 56 min
Bit rate : 384 kb/s
Channel(s) : 2 channels
Channel layout : L R
Sampling rate : 48.0 kHz
Frame rate : 46.875 FPS (1024 SPF)
Compression mode : Lossy
Delay relative to video : 18 ms
Stream size : 646 MiB (6%)
Default : Yes
Forced : No

Complete name : NOAH.2021.08.15.Kawasaki.Go.2021.ENGLISH.720p.WEB.h264-LATE.mkv
Format : Matroska
Format version : Version 4
File size : 4.41 GiB
Duration : 3 h 56 min
Overall bit rate mode : Variable
Overall bit rate : 2 667 kb/s

NOAH Kawasaki Go 2021

Video
ID : 1
Format : AVC
Format/Info : Advanced Video
Duration : 3 h 56 min
Bit rate mode : Variable
Bit rate : 2 475 kb/s
Maximum bit rate : 8 000 kb/s
Width : 1 280 pixels
Height : 720 pixels
Display aspect ratio : 16:9
Frame rate mode : Constant
Frame rate : 29.970 (30000/1001) FPS
Color space : YUV
Chroma subsampling : 4:2:0
Bit depth : 8 bits
Scan type : Progressive
Bits/(Pixel*Frame) : 0.090
Stream size : 4.09 GiB (93%)
Default : Yes
Forced : No
Color range : Limited
Color primaries : BT.709
Transfer characteristics : BT.709
Matrix coefficients : BT.709

NOAH Kawasaki Go 2021

Audio
ID : 2
Format : AAC LC
Format/Info : Advanced Audio
Codec ID : A_AAC-2
Duration : 3 h 56 min
Bit rate : 192 kb/s
Channel(s) : 2 channels
Channel layout : L R
Sampling rate : 48.0 kHz
Frame rate : 46.875 FPS (1024 SPF)
Compression mode : Lossy
Delay relative to video : 18 ms
Stream size : 321 MiB (7%)
Default : Yes
Forced : No

NOAH Kawasaki Go 2021

Complete name : NOAH.2021.08.15.Kawasaki.Go.2021.ENGLISH.WEB.h264-LATE.mkv
Format : Matroska
Format version : Version 4
File size : 2.12 GiB
Duration : 3 h 56 min
Overall bit rate mode : Variable
Overall bit rate : 1 284 kb/s
Video
ID : 1
Format : AVC
Format/Info : Advanced Video
Duration : 3 h 56 min
Bit rate mode : Variable
Bit rate : 1 156 kb/s
Maximum bit rate : 4 000 kb/s
Width : 960 pixels
Height : 540 pixels
Display aspect ratio : 16:9
Frame rate mode : Constant
Frame rate : 29.970 (30000/1001) FPS
Color space : YUV
Chroma subsampling : 4:2:0
Bit depth : 8 bits
Scan type : Progressive
Bits/(Pixel*Frame) : 0.074
Stream size : 1.91 GiB (90%)
Default : Yes
Forced : No
Color range : Limited
Color primaries : BT.709
Transfer characteristics : BT.709
Matrix coefficients : BT.709

NOAH Kawasaki Go 2021

Audio
ID : 2
Format : AAC LC
Format/Info : Advanced Audio
Codec ID : A_AAC-2
Duration : 3 h 56 min
Bit rate : 125 kb/s
Channel(s) : 2 channels
Channel layout : L R
Sampling rate : 48.0 kHz
Frame rate : 46.875 FPS (1024 SPF)
Compression mode : Lossy
Delay relative to video : 18 ms
Stream size : 212 MiB (10%)
Default : Yes
Forced : No

Complete name : NOAH.2021.08.15.Kawasaki.Go.2021.ENGLISH.1080p.WEB.h264-LATE.mkv
Format : Matroska
Format version : Version 4
File size : 10.2 GiB
Duration : 3 h 56 min
Overall bit rate mode : Variable
Overall bit rate : 6 187 kb/s

NOAH Kawasaki Go 2021

Video
ID : 1
Format : AVC
Format/Info : Advanced Video
Duration : 3 h 56 min
Bit rate mode : Variable
Bit rate : 5 803 kb/s
Maximum bit rate : 18.0 Mb/s
Width : 1 920 pixels
Height : 1 080 pixels
Display aspect ratio : 16:9
Frame rate mode : Constant
Frame rate : 29.970 (30000/1001) FPS
Color space : YUV
Chroma subsampling : 4:2:0
Bit depth : 8 bits
Scan type : Progressive
Bits/(Pixel*Frame) : 0.093
Stream size : 9.60 GiB (94%)
Default : Yes
Forced : No
Color range : Limited
Color primaries : BT.709
Transfer characteristics : BT.709
Matrix coefficients : BT.709

NOAH Kawasaki Go 2021

Audio
ID : 2
Format : AAC LC
Format/Info : Advanced Audio
Codec ID : A_AAC-2
Duration : 3 h 56 min
Bit rate : 384 kb/s
Channel(s) : 2 channels
Channel layout : L R
Sampling rate : 48.0 kHz
Frame rate : 46.875 FPS (1024 SPF)
Compression mode : Lossy
Delay relative to video : 18 ms
Stream size : 646 MiB (6%)
Default : Yes
Forced : No

Complete name : NOAH.2021.08.15.Kawasaki.Go.2021.ENGLISH.720p.WEB.h264-LATE.mkv
Format : Matroska
Format version : Version 4
File size : 4.41 GiB
Duration : 3 h 56 min
Overall bit rate mode : Variable
Overall bit rate : 2 667 kb/s

NOAH Kawasaki Go 2021

Video
ID : 1
Format : AVC
Format/Info : Advanced Video
Duration : 3 h 56 min
Bit rate mode : Variable
Bit rate : 2 475 kb/s
Maximum bit rate : 8 000 kb/s
Width : 1 280 pixels
Height : 720 pixels
Display aspect ratio : 16:9
Frame rate mode : Constant
Frame rate : 29.970 (30000/1001) FPS
Color space : YUV
Chroma subsampling : 4:2:0
Bit depth : 8 bits
Scan type : Progressive
Bits/(Pixel*Frame) : 0.090
Stream size : 4.09 GiB (93%)
Default : Yes
Forced : No
Color range : Limited
Color primaries : BT.709
Transfer characteristics : BT.709
Matrix coefficients : BT.709

NOAH Kawasaki Go 2021

Audio
ID : 2
Format : AAC LC
Format/Info : Advanced Audio
Codec ID : A_AAC-2
Duration : 3 h 56 min
Bit rate : 192 kb/s
Channel(s) : 2 channels
Channel layout : L R
Sampling rate : 48.0 kHz
Frame rate : 46.875 FPS (1024 SPF)
Compression mode : Lossy
Delay relative to video : 18 ms
Stream size : 321 MiB (7%)
Default : Yes
Forced : No

NOAH Kawasaki Go 2021

Complete name : NOAH.2021.08.15.Kawasaki.Go.2021.ENGLISH.WEB.h264-LATE.mkv
Format : Matroska
Format version : Version 4
File size : 2.12 GiB
Duration : 3 h 56 min
Overall bit rate mode : Variable
Overall bit rate : 1 284 kb/s
Video
ID : 1
Format : AVC
Format/Info : Advanced Video
Duration : 3 h 56 min
Bit rate mode : Variable
Bit rate : 1 156 kb/s
Maximum bit rate : 4 000 kb/s
Width : 960 pixels
Height : 540 pixels
Display aspect ratio : 16:9
Frame rate mode : Constant
Frame rate : 29.970 (30000/1001) FPS
Color space : YUV
Chroma subsampling : 4:2:0
Bit depth : 8 bits
Scan type : Progressive
Bits/(Pixel*Frame) : 0.074
Stream size : 1.91 GiB (90%)
Default : Yes
Forced : No
Color range : Limited
Color primaries : BT.709
Transfer characteristics : BT.709
Matrix coefficients : BT.709

NOAH Kawasaki Go 2021

Audio
ID : 2
Format : AAC LC
Format/Info : Advanced Audio
Codec ID : A_AAC-2
Duration : 3 h 56 min
Bit rate : 125 kb/s
Channel(s) : 2 channels
Channel layout : L R
Sampling rate : 48.0 kHz
Frame rate : 46.875 FPS (1024 SPF)
Compression mode : Lossy
Delay relative to video : 18 ms
Stream size : 212 MiB (10%)
Default : Yes
Forced : No

Complete name : NOAH.2021.08.15.Kawasaki.Go.2021.ENGLISH.1080p.WEB.h264-LATE.mkv
Format : Matroska
Format version : Version 4
File size : 10.2 GiB
Duration : 3 h 56 min
Overall bit rate mode : Variable
Overall bit rate : 6 187 kb/s

NOAH Kawasaki Go 2021

Video
ID : 1
Format : AVC
Format/Info : Advanced Video
Duration : 3 h 56 min
Bit rate mode : Variable
Bit rate : 5 803 kb/s
Maximum bit rate : 18.0 Mb/s
Width : 1 920 pixels
Height : 1 080 pixels
Display aspect ratio : 16:9
Frame rate mode : Constant
Frame rate : 29.970 (30000/1001) FPS
Color space : YUV
Chroma subsampling : 4:2:0
Bit depth : 8 bits
Scan type : Progressive
Bits/(Pixel*Frame) : 0.093
Stream size : 9.60 GiB (94%)
Default : Yes
Forced : No
Color range : Limited
Color primaries : BT.709
Transfer characteristics : BT.709
Matrix coefficients : BT.709

NOAH Kawasaki Go 2021

Audio
ID : 2
Format : AAC LC
Format/Info : Advanced Audio
Codec ID : A_AAC-2
Duration : 3 h 56 min
Bit rate : 384 kb/s
Channel(s) : 2 channels
Channel layout : L R
Sampling rate : 48.0 kHz
Frame rate : 46.875 FPS (1024 SPF)
Compression mode : Lossy
Delay relative to video : 18 ms
Stream size : 646 MiB (6%)
Default : Yes
Forced : No

Complete name : NOAH.2021.08.15.Kawasaki.Go.2021.ENGLISH.720p.WEB.h264-LATE.mkv
Format : Matroska
Format version : Version 4
File size : 4.41 GiB
Duration : 3 h 56 min
Overall bit rate mode : Variable
Overall bit rate : 2 667 kb/s

NOAH Kawasaki Go 2021

Video
ID : 1
Format : AVC
Format/Info : Advanced Video
Duration : 3 h 56 min
Bit rate mode : Variable
Bit rate : 2 475 kb/s
Maximum bit rate : 8 000 kb/s
Width : 1 280 pixels
Height : 720 pixels
Display aspect ratio : 16:9
Frame rate mode : Constant
Frame rate : 29.970 (30000/1001) FPS
Color space : YUV
Chroma subsampling : 4:2:0
Bit depth : 8 bits
Scan type : Progressive
Bits/(Pixel*Frame) : 0.090
Stream size : 4.09 GiB (93%)
Default : Yes
Forced : No
Color range : Limited
Color primaries : BT.709
Transfer characteristics : BT.709
Matrix coefficients : BT.709

NOAH Kawasaki Go 2021

Audio
ID : 2
Format : AAC LC
Format/Info : Advanced Audio
Codec ID : A_AAC-2
Duration : 3 h 56 min
Bit rate : 192 kb/s
Channel(s) : 2 channels
Channel layout : L R
Sampling rate : 48.0 kHz
Frame rate : 46.875 FPS (1024 SPF)
Compression mode : Lossy
Delay relative to video : 18 ms
Stream size : 321 MiB (7%)
Default : Yes
Forced : No

NOAH Kawasaki Go 2021

Complete name : NOAH.2021.08.15.Kawasaki.Go.2021.ENGLISH.WEB.h264-LATE.mkv
Format : Matroska
Format version : Version 4
File size : 2.12 GiB
Duration : 3 h 56 min
Overall bit rate mode : Variable
Overall bit rate : 1 284 kb/s
Video
ID : 1
Format : AVC
Format/Info : Advanced Video
Duration : 3 h 56 min
Bit rate mode : Variable
Bit rate : 1 156 kb/s
Maximum bit rate : 4 000 kb/s
Width : 960 pixels
Height : 540 pixels
Display aspect ratio : 16:9
Frame rate mode : Constant
Frame rate : 29.970 (30000/1001) FPS
Color space : YUV
Chroma subsampling : 4:2:0
Bit depth : 8 bits
Scan type : Progressive
Bits/(Pixel*Frame) : 0.074
Stream size : 1.91 GiB (90%)
Default : Yes
Forced : No
Color range : Limited
Color primaries : BT.709
Transfer characteristics : BT.709
Matrix coefficients : BT.709

NOAH Kawasaki Go 2021

Audio
ID : 2
Format : AAC LC
Format/Info : Advanced Audio
Codec ID : A_AAC-2
Duration : 3 h 56 min
Bit rate : 125 kb/s
Channel(s) : 2 channels
Channel layout : L R
Sampling rate : 48.0 kHz
Frame rate : 46.875 FPS (1024 SPF)
Compression mode : Lossy
Delay relative to video : 18 ms
Stream size : 212 MiB (10%)
Default : Yes
Forced : No

Complete name : NOAH.2021.08.15.Kawasaki.Go.2021.ENGLISH.1080p.WEB.h264-LATE.mkv
Format : Matroska
Format version : Version 4
File size : 10.2 GiB
Duration : 3 h 56 min
Overall bit rate mode : Variable
Overall bit rate : 6 187 kb/s

NOAH Kawasaki Go 2021

Video
ID : 1
Format : AVC
Format/Info : Advanced Video
Duration : 3 h 56 min
Bit rate mode : Variable
Bit rate : 5 803 kb/s
Maximum bit rate : 18.0 Mb/s
Width : 1 920 pixels
Height : 1 080 pixels
Display aspect ratio : 16:9
Frame rate mode : Constant
Frame rate : 29.970 (30000/1001) FPS
Color space : YUV
Chroma subsampling : 4:2:0
Bit depth : 8 bits
Scan type : Progressive
Bits/(Pixel*Frame) : 0.093
Stream size : 9.60 GiB (94%)
Default : Yes
Forced : No
Color range : Limited
Color primaries : BT.709
Transfer characteristics : BT.709
Matrix coefficients : BT.709

NOAH Kawasaki Go 2021

Audio
ID : 2
Format : AAC LC
Format/Info : Advanced Audio
Codec ID : A_AAC-2
Duration : 3 h 56 min
Bit rate : 384 kb/s
Channel(s) : 2 channels
Channel layout : L R
Sampling rate : 48.0 kHz
Frame rate : 46.875 FPS (1024 SPF)
Compression mode : Lossy
Delay relative to video : 18 ms
Stream size : 646 MiB (6%)
Default : Yes
Forced : No

Complete name : NOAH.2021.08.15.Kawasaki.Go.2021.ENGLISH.720p.WEB.h264-LATE.mkv
Format : Matroska
Format version : Version 4
File size : 4.41 GiB
Duration : 3 h 56 min
Overall bit rate mode : Variable
Overall bit rate : 2 667 kb/s

NOAH Kawasaki Go 2021

Video
ID : 1
Format : AVC
Format/Info : Advanced Video
Duration : 3 h 56 min
Bit rate mode : Variable
Bit rate : 2 475 kb/s
Maximum bit rate : 8 000 kb/s
Width : 1 280 pixels
Height : 720 pixels
Display aspect ratio : 16:9
Frame rate mode : Constant
Frame rate : 29.970 (30000/1001) FPS
Color space : YUV
Chroma subsampling : 4:2:0
Bit depth : 8 bits
Scan type : Progressive
Bits/(Pixel*Frame) : 0.090
Stream size : 4.09 GiB (93%)
Default : Yes
Forced : No
Color range : Limited
Color primaries : BT.709
Transfer characteristics : BT.709
Matrix coefficients : BT.709

NOAH Kawasaki Go 2021

Audio
ID : 2
Format : AAC LC
Format/Info : Advanced Audio
Codec ID : A_AAC-2
Duration : 3 h 56 min
Bit rate : 192 kb/s
Channel(s) : 2 channels
Channel layout : L R
Sampling rate : 48.0 kHz
Frame rate : 46.875 FPS (1024 SPF)
Compression mode : Lossy
Delay relative to video : 18 ms
Stream size : 321 MiB (7%)
Default : Yes
Forced : No

NOAH Kawasaki Go 2021

Complete name : NOAH.2021.08.15.Kawasaki.Go.2021.ENGLISH.WEB.h264-LATE.mkv
Format : Matroska
Format version : Version 4
File size : 2.12 GiB
Duration : 3 h 56 min
Overall bit rate mode : Variable
Overall bit rate : 1 284 kb/s
Video
ID : 1
Format : AVC
Format/Info : Advanced Video
Duration : 3 h 56 min
Bit rate mode : Variable
Bit rate : 1 156 kb/s
Maximum bit rate : 4 000 kb/s
Width : 960 pixels
Height : 540 pixels
Display aspect ratio : 16:9
Frame rate mode : Constant
Frame rate : 29.970 (30000/1001) FPS
Color space : YUV
Chroma subsampling : 4:2:0
Bit depth : 8 bits
Scan type : Progressive
Bits/(Pixel*Frame) : 0.074
Stream size : 1.91 GiB (90%)
Default : Yes
Forced : No
Color range : Limited
Color primaries : BT.709
Transfer characteristics : BT.709
Matrix coefficients : BT.709

NOAH Kawasaki Go 2021

Audio
ID : 2
Format : AAC LC
Format/Info : Advanced Audio
Codec ID : A_AAC-2
Duration : 3 h 56 min
Bit rate : 125 kb/s
Channel(s) : 2 channels
Channel layout : L R
Sampling rate : 48.0 kHz
Frame rate : 46.875 FPS (1024 SPF)
Compression mode : Lossy
Delay relative to video : 18 ms
Stream size : 212 MiB (10%)
Default : Yes
Forced : No

Complete name : NOAH.2021.08.15.Kawasaki.Go.2021.ENGLISH.1080p.WEB.h264-LATE.mkv
Format : Matroska
Format version : Version 4
File size : 10.2 GiB
Duration : 3 h 56 min
Overall bit rate mode : Variable
Overall bit rate : 6 187 kb/s

NOAH Kawasaki Go 2021

Video
ID : 1
Format : AVC
Format/Info : Advanced Video
Duration : 3 h 56 min
Bit rate mode : Variable
Bit rate : 5 803 kb/s
Maximum bit rate : 18.0 Mb/s
Width : 1 920 pixels
Height : 1 080 pixels
Display aspect ratio : 16:9
Frame rate mode : Constant
Frame rate : 29.970 (30000/1001) FPS
Color space : YUV
Chroma subsampling : 4:2:0
Bit depth : 8 bits
Scan type : Progressive
Bits/(Pixel*Frame) : 0.093
Stream size : 9.60 GiB (94%)
Default : Yes
Forced : No
Color range : Limited
Color primaries : BT.709
Transfer characteristics : BT.709
Matrix coefficients : BT.709

NOAH Kawasaki Go 2021

Audio
ID : 2
Format : AAC LC
Format/Info : Advanced Audio
Codec ID : A_AAC-2
Duration : 3 h 56 min
Bit rate : 384 kb/s
Channel(s) : 2 channels
Channel layout : L R
Sampling rate : 48.0 kHz
Frame rate : 46.875 FPS (1024 SPF)
Compression mode : Lossy
Delay relative to video : 18 ms
Stream size : 646 MiB (6%)
Default : Yes
Forced : No

Complete name : NOAH.2021.08.15.Kawasaki.Go.2021.ENGLISH.720p.WEB.h264-LATE.mkv
Format : Matroska
Format version : Version 4
File size : 4.41 GiB
Duration : 3 h 56 min
Overall bit rate mode : Variable
Overall bit rate : 2 667 kb/s

NOAH Kawasaki Go 2021

Video
ID : 1
Format : AVC
Format/Info : Advanced Video
Duration : 3 h 56 min
Bit rate mode : Variable
Bit rate : 2 475 kb/s
Maximum bit rate : 8 000 kb/s
Width : 1 280 pixels
Height : 720 pixels
Display aspect ratio : 16:9
Frame rate mode : Constant
Frame rate : 29.970 (30000/1001) FPS
Color space : YUV
Chroma subsampling : 4:2:0
Bit depth : 8 bits
Scan type : Progressive
Bits/(Pixel*Frame) : 0.090
Stream size : 4.09 GiB (93%)
Default : Yes
Forced : No
Color range : Limited
Color primaries : BT.709
Transfer characteristics : BT.709
Matrix coefficients : BT.709

NOAH Kawasaki Go 2021

Audio
ID : 2
Format : AAC LC
Format/Info : Advanced Audio
Codec ID : A_AAC-2
Duration : 3 h 56 min
Bit rate : 192 kb/s
Channel(s) : 2 channels
Channel layout : L R
Sampling rate : 48.0 kHz
Frame rate : 46.875 FPS (1024 SPF)
Compression mode : Lossy
Delay relative to video : 18 ms
Stream size : 321 MiB (7%)
Default : Yes
Forced : No

NOAH Kawasaki Go 2021

 

[collapse]

 

 

https://dx-tv.com/

Leave a Reply

Your email address will not be published. Required fields are marked *

This site uses Akismet to reduce spam. Learn how your comment data is processed.