NOAH Cage War 2021 06 26 English 1080p Online Free Replay DX-TV

NOAH Cage War 2021

 NOAH Cage War 2021

 

 

 

Download Links with premium High Speed


Dopapk

 

 

Show Links

 

http://shrt10.com/wJ9qk1TV
http://shrt10.com/tNADat5Kj

https://drop.download/8ofciw3g2j6k

[collapse]

 

 

Nitroflare

 

 

Show Links

 

http://shrt10.com/JZYO5
http://shrt10.com/OSGUpgw

http://shrt10.com/joPqQ

[collapse]

 

 

Rapidgator

 

 

Show Links

 

http://shrt10.com/6GlkG5bk1
http://shrt10.com/1Dn8wZZx
http://shrt10.com/PGAz9YQ

 

[collapse]

 

 

Uploaded

 

 

Show Links

 

http://shrt10.com/4J3lUv
http://shrt10.com/REf5K6IOp

 

[collapse]

 

 

Watch online

 

Server 1

 

 

 

 

watch now

 

 

 

 

Server-2

 

 

 

 

NOAH Cage War 2021

 

 

 

|Server-4

 

 

 

 

watch now

 

 

Uploaded By Site DX-TV.com

 

 

Show Info This Show

 

NOAH Cage War 2021

Complete name : NOAH.2021.06.26.Cage.War.ENGLISH.720p.WEB.h264-LATE.mkv
Format : Matroska
Format version : Version 4
File size : 4.32 GiB
Duration : 3 h 34 min
Overall bit rate mode : Variable
Overall bit rate : 2 889 kb/s

Video
ID : 1
Format : AVC
Format/Info : Advanced Video
Duration : 3 h 34 min
Bit rate mode : Variable
Bit rate : 2 697 kb/s
Maximum bit rate : 8 000 kb/s
Width : 1 280 pixels
Height : 720 pixels
Display aspect ratio : 16:9
Frame rate mode : Constant
Frame rate : 29.970 (29970/1000) FPS
Color space : YUV
Chroma subsampling : 4:2:0
Bit depth : 8 bits
Scan type : Progressive
Bits/(Pixel*Frame) : 0.098
Stream size : 4.04 GiB (93%)
Default : Yes
Forced : No
Color range : Limited
Color primaries : BT.709
Transfer characteristics : BT.709
Matrix coefficients : BT.709

NOAH Cage War 2021

Audio
ID : 2
Format : AAC LC
Format/Info : Advanced Audio
Codec ID : A_AAC-2
Duration : 3 h 34 min
Bit rate : 192 kb/s
Channel(s) : 2 channels
Channel layout : L R
Sampling rate : 48.0 kHz
Frame rate : 46.875 FPS (1024 SPF)
Compression mode : Lossy
Delay relative to video : 16 ms
Stream size : 290 MiB (7%)
Default : Yes
Forced : No

Complete name : NOAH.2021.06.26.Cage.War.ENGLISH.1080p.WEB.h264-LATE.mkv
Format : Matroska
Format version : Version 4
File size : 9.76 GiB
Duration : 3 h 37 min
Overall bit rate mode : Variable
Overall bit rate : 6 422 kb/s

NOAH Cage War 2021

Video
ID : 1
Format : AVC
Format/Info : Advanced Video
Duration : 3 h 37 min
Bit rate mode : Variable
Bit rate : 6 038 kb/s
Maximum bit rate : 18.0 Mb/s
Width : 1 920 pixels
Height : 1 080 pixels
Display aspect ratio : 16:9
Frame rate mode : Constant
Frame rate : 29.970 (29970/1000) FPS
Color space : YUV
Chroma subsampling : 4:2:0
Bit depth : 8 bits
Scan type : Progressive
Bits/(Pixel*Frame) : 0.097
Stream size : 9.18 GiB (94%)
Default : Yes
Forced : No
Color range : Limited
Color primaries : BT.709
Transfer characteristics : BT.709
Matrix coefficients : BT.709

NOAH Cage War 2021

Audio
ID : 2
Format : AAC LC
Format/Info : Advanced Audio
Codec ID : A_AAC-2
Duration : 3 h 37 min
Bit rate : 384 kb/s
Channel(s) : 2 channels
Channel layout : L R
Sampling rate : 48.0 kHz
Frame rate : 46.875 FPS (1024 SPF)
Compression mode : Lossy
Delay relative to video : 2 ms
Stream size : 593 MiB (6%)
Default : Yes
Forced : No

Complete name : NOAH.2021.06.26.Cage.War.ENGLISH.WEB.h264-LATE.mkv
Format : Matroska
Format version : Version 4
File size : 2.19 GiB
Duration : 3 h 34 min
Overall bit rate mode : Variable
Overall bit rate : 1 467 kb/s

NOAH Cage War 2021

Video
ID : 1
Format : AVC
Format/Info : Advanced Video
Duration : 3 h 34 min
Bit rate mode : Variable
Bit rate : 1 339 kb/s
Maximum bit rate : 4 000 kb/s
Width : 960 pixels
Height : 540 pixels
Display aspect ratio : 16:9
Frame rate mode : Constant
Frame rate : 29.970 (29970/1000) FPS
Color space : YUV
Chroma subsampling : 4:2:0
Bit depth : 8 bits
Scan type : Progressive
Bits/(Pixel*Frame) : 0.086
Stream size : 2.00 GiB (91%)
Default : Yes
Forced : No
Color range : Limited
Color primaries : BT.709
Transfer characteristics : BT.709
Matrix coefficients : BT.709

NOAH Cage War 2021

Audio
ID : 2
Format : AAC LC
Format/Info : Advanced Audio
Codec ID : A_AAC-2
Duration : 3 h 34 min
Bit rate : 125 kb/s
Channel(s) : 2 channels
Channel layout : L R
Sampling rate : 48.0 kHz
Frame rate : 46.875 FPS (1024 SPF)
Compression mode : Lossy
Delay relative to video : 16 ms
Stream size : 192 MiB (9%)
Default : Yes
Forced : No

NOAH Cage War 2021

Complete name : NOAH.2021.06.26.Cage.War.ENGLISH.720p.WEB.h264-LATE.mkv
Format : Matroska
Format version : Version 4
File size : 4.32 GiB
Duration : 3 h 34 min
Overall bit rate mode : Variable
Overall bit rate : 2 889 kb/s

Video
ID : 1
Format : AVC
Format/Info : Advanced Video
Duration : 3 h 34 min
Bit rate mode : Variable
Bit rate : 2 697 kb/s
Maximum bit rate : 8 000 kb/s
Width : 1 280 pixels
Height : 720 pixels
Display aspect ratio : 16:9
Frame rate mode : Constant
Frame rate : 29.970 (29970/1000) FPS
Color space : YUV
Chroma subsampling : 4:2:0
Bit depth : 8 bits
Scan type : Progressive
Bits/(Pixel*Frame) : 0.098
Stream size : 4.04 GiB (93%)
Default : Yes
Forced : No
Color range : Limited
Color primaries : BT.709
Transfer characteristics : BT.709
Matrix coefficients : BT.709

NOAH Cage War 2021

Audio
ID : 2
Format : AAC LC
Format/Info : Advanced Audio
Codec ID : A_AAC-2
Duration : 3 h 34 min
Bit rate : 192 kb/s
Channel(s) : 2 channels
Channel layout : L R
Sampling rate : 48.0 kHz
Frame rate : 46.875 FPS (1024 SPF)
Compression mode : Lossy
Delay relative to video : 16 ms
Stream size : 290 MiB (7%)
Default : Yes
Forced : No

Complete name : NOAH.2021.06.26.Cage.War.ENGLISH.1080p.WEB.h264-LATE.mkv
Format : Matroska
Format version : Version 4
File size : 9.76 GiB
Duration : 3 h 37 min
Overall bit rate mode : Variable
Overall bit rate : 6 422 kb/s

NOAH Cage War 2021

Video
ID : 1
Format : AVC
Format/Info : Advanced Video
Duration : 3 h 37 min
Bit rate mode : Variable
Bit rate : 6 038 kb/s
Maximum bit rate : 18.0 Mb/s
Width : 1 920 pixels
Height : 1 080 pixels
Display aspect ratio : 16:9
Frame rate mode : Constant
Frame rate : 29.970 (29970/1000) FPS
Color space : YUV
Chroma subsampling : 4:2:0
Bit depth : 8 bits
Scan type : Progressive
Bits/(Pixel*Frame) : 0.097
Stream size : 9.18 GiB (94%)
Default : Yes
Forced : No
Color range : Limited
Color primaries : BT.709
Transfer characteristics : BT.709
Matrix coefficients : BT.709

NOAH Cage War 2021

Audio
ID : 2
Format : AAC LC
Format/Info : Advanced Audio
Codec ID : A_AAC-2
Duration : 3 h 37 min
Bit rate : 384 kb/s
Channel(s) : 2 channels
Channel layout : L R
Sampling rate : 48.0 kHz
Frame rate : 46.875 FPS (1024 SPF)
Compression mode : Lossy
Delay relative to video : 2 ms
Stream size : 593 MiB (6%)
Default : Yes
Forced : No

Complete name : NOAH.2021.06.26.Cage.War.ENGLISH.WEB.h264-LATE.mkv
Format : Matroska
Format version : Version 4
File size : 2.19 GiB
Duration : 3 h 34 min
Overall bit rate mode : Variable
Overall bit rate : 1 467 kb/s

NOAH Cage War 2021

Video
ID : 1
Format : AVC
Format/Info : Advanced Video
Duration : 3 h 34 min
Bit rate mode : Variable
Bit rate : 1 339 kb/s
Maximum bit rate : 4 000 kb/s
Width : 960 pixels
Height : 540 pixels
Display aspect ratio : 16:9
Frame rate mode : Constant
Frame rate : 29.970 (29970/1000) FPS
Color space : YUV
Chroma subsampling : 4:2:0
Bit depth : 8 bits
Scan type : Progressive
Bits/(Pixel*Frame) : 0.086
Stream size : 2.00 GiB (91%)
Default : Yes
Forced : No
Color range : Limited
Color primaries : BT.709
Transfer characteristics : BT.709
Matrix coefficients : BT.709

NOAH Cage War 2021

Audio
ID : 2
Format : AAC LC
Format/Info : Advanced Audio
Codec ID : A_AAC-2
Duration : 3 h 34 min
Bit rate : 125 kb/s
Channel(s) : 2 channels
Channel layout : L R
Sampling rate : 48.0 kHz
Frame rate : 46.875 FPS (1024 SPF)
Compression mode : Lossy
Delay relative to video : 16 ms
Stream size : 192 MiB (9%)
Default : Yes
Forced : No

NOAH Cage War 2021

Complete name : NOAH.2021.06.26.Cage.War.ENGLISH.720p.WEB.h264-LATE.mkv
Format : Matroska
Format version : Version 4
File size : 4.32 GiB
Duration : 3 h 34 min
Overall bit rate mode : Variable
Overall bit rate : 2 889 kb/s

Video
ID : 1
Format : AVC
Format/Info : Advanced Video
Duration : 3 h 34 min
Bit rate mode : Variable
Bit rate : 2 697 kb/s
Maximum bit rate : 8 000 kb/s
Width : 1 280 pixels
Height : 720 pixels
Display aspect ratio : 16:9
Frame rate mode : Constant
Frame rate : 29.970 (29970/1000) FPS
Color space : YUV
Chroma subsampling : 4:2:0
Bit depth : 8 bits
Scan type : Progressive
Bits/(Pixel*Frame) : 0.098
Stream size : 4.04 GiB (93%)
Default : Yes
Forced : No
Color range : Limited
Color primaries : BT.709
Transfer characteristics : BT.709
Matrix coefficients : BT.709

NOAH Cage War 2021

Audio
ID : 2
Format : AAC LC
Format/Info : Advanced Audio
Codec ID : A_AAC-2
Duration : 3 h 34 min
Bit rate : 192 kb/s
Channel(s) : 2 channels
Channel layout : L R
Sampling rate : 48.0 kHz
Frame rate : 46.875 FPS (1024 SPF)
Compression mode : Lossy
Delay relative to video : 16 ms
Stream size : 290 MiB (7%)
Default : Yes
Forced : No

Complete name : NOAH.2021.06.26.Cage.War.ENGLISH.1080p.WEB.h264-LATE.mkv
Format : Matroska
Format version : Version 4
File size : 9.76 GiB
Duration : 3 h 37 min
Overall bit rate mode : Variable
Overall bit rate : 6 422 kb/s

NOAH Cage War 2021

Video
ID : 1
Format : AVC
Format/Info : Advanced Video
Duration : 3 h 37 min
Bit rate mode : Variable
Bit rate : 6 038 kb/s
Maximum bit rate : 18.0 Mb/s
Width : 1 920 pixels
Height : 1 080 pixels
Display aspect ratio : 16:9
Frame rate mode : Constant
Frame rate : 29.970 (29970/1000) FPS
Color space : YUV
Chroma subsampling : 4:2:0
Bit depth : 8 bits
Scan type : Progressive
Bits/(Pixel*Frame) : 0.097
Stream size : 9.18 GiB (94%)
Default : Yes
Forced : No
Color range : Limited
Color primaries : BT.709
Transfer characteristics : BT.709
Matrix coefficients : BT.709

NOAH Cage War 2021

Audio
ID : 2
Format : AAC LC
Format/Info : Advanced Audio
Codec ID : A_AAC-2
Duration : 3 h 37 min
Bit rate : 384 kb/s
Channel(s) : 2 channels
Channel layout : L R
Sampling rate : 48.0 kHz
Frame rate : 46.875 FPS (1024 SPF)
Compression mode : Lossy
Delay relative to video : 2 ms
Stream size : 593 MiB (6%)
Default : Yes
Forced : No

Complete name : NOAH.2021.06.26.Cage.War.ENGLISH.WEB.h264-LATE.mkv
Format : Matroska
Format version : Version 4
File size : 2.19 GiB
Duration : 3 h 34 min
Overall bit rate mode : Variable
Overall bit rate : 1 467 kb/s

NOAH Cage War 2021

Video
ID : 1
Format : AVC
Format/Info : Advanced Video
Duration : 3 h 34 min
Bit rate mode : Variable
Bit rate : 1 339 kb/s
Maximum bit rate : 4 000 kb/s
Width : 960 pixels
Height : 540 pixels
Display aspect ratio : 16:9
Frame rate mode : Constant
Frame rate : 29.970 (29970/1000) FPS
Color space : YUV
Chroma subsampling : 4:2:0
Bit depth : 8 bits
Scan type : Progressive
Bits/(Pixel*Frame) : 0.086
Stream size : 2.00 GiB (91%)
Default : Yes
Forced : No
Color range : Limited
Color primaries : BT.709
Transfer characteristics : BT.709
Matrix coefficients : BT.709

NOAH Cage War 2021

Audio
ID : 2
Format : AAC LC
Format/Info : Advanced Audio
Codec ID : A_AAC-2
Duration : 3 h 34 min
Bit rate : 125 kb/s
Channel(s) : 2 channels
Channel layout : L R
Sampling rate : 48.0 kHz
Frame rate : 46.875 FPS (1024 SPF)
Compression mode : Lossy
Delay relative to video : 16 ms
Stream size : 192 MiB (9%)
Default : Yes
Forced : No

NOAH Cage War 2021

Complete name : NOAH.2021.06.26.Cage.War.ENGLISH.720p.WEB.h264-LATE.mkv
Format : Matroska
Format version : Version 4
File size : 4.32 GiB
Duration : 3 h 34 min
Overall bit rate mode : Variable
Overall bit rate : 2 889 kb/s

Video
ID : 1
Format : AVC
Format/Info : Advanced Video
Duration : 3 h 34 min
Bit rate mode : Variable
Bit rate : 2 697 kb/s
Maximum bit rate : 8 000 kb/s
Width : 1 280 pixels
Height : 720 pixels
Display aspect ratio : 16:9
Frame rate mode : Constant
Frame rate : 29.970 (29970/1000) FPS
Color space : YUV
Chroma subsampling : 4:2:0
Bit depth : 8 bits
Scan type : Progressive
Bits/(Pixel*Frame) : 0.098
Stream size : 4.04 GiB (93%)
Default : Yes
Forced : No
Color range : Limited
Color primaries : BT.709
Transfer characteristics : BT.709
Matrix coefficients : BT.709

NOAH Cage War 2021

Audio
ID : 2
Format : AAC LC
Format/Info : Advanced Audio
Codec ID : A_AAC-2
Duration : 3 h 34 min
Bit rate : 192 kb/s
Channel(s) : 2 channels
Channel layout : L R
Sampling rate : 48.0 kHz
Frame rate : 46.875 FPS (1024 SPF)
Compression mode : Lossy
Delay relative to video : 16 ms
Stream size : 290 MiB (7%)
Default : Yes
Forced : No

Complete name : NOAH.2021.06.26.Cage.War.ENGLISH.1080p.WEB.h264-LATE.mkv
Format : Matroska
Format version : Version 4
File size : 9.76 GiB
Duration : 3 h 37 min
Overall bit rate mode : Variable
Overall bit rate : 6 422 kb/s

NOAH Cage War 2021

Video
ID : 1
Format : AVC
Format/Info : Advanced Video
Duration : 3 h 37 min
Bit rate mode : Variable
Bit rate : 6 038 kb/s
Maximum bit rate : 18.0 Mb/s
Width : 1 920 pixels
Height : 1 080 pixels
Display aspect ratio : 16:9
Frame rate mode : Constant
Frame rate : 29.970 (29970/1000) FPS
Color space : YUV
Chroma subsampling : 4:2:0
Bit depth : 8 bits
Scan type : Progressive
Bits/(Pixel*Frame) : 0.097
Stream size : 9.18 GiB (94%)
Default : Yes
Forced : No
Color range : Limited
Color primaries : BT.709
Transfer characteristics : BT.709
Matrix coefficients : BT.709

NOAH Cage War 2021

Audio
ID : 2
Format : AAC LC
Format/Info : Advanced Audio
Codec ID : A_AAC-2
Duration : 3 h 37 min
Bit rate : 384 kb/s
Channel(s) : 2 channels
Channel layout : L R
Sampling rate : 48.0 kHz
Frame rate : 46.875 FPS (1024 SPF)
Compression mode : Lossy
Delay relative to video : 2 ms
Stream size : 593 MiB (6%)
Default : Yes
Forced : No

Complete name : NOAH.2021.06.26.Cage.War.ENGLISH.WEB.h264-LATE.mkv
Format : Matroska
Format version : Version 4
File size : 2.19 GiB
Duration : 3 h 34 min
Overall bit rate mode : Variable
Overall bit rate : 1 467 kb/s

NOAH Cage War 2021

Video
ID : 1
Format : AVC
Format/Info : Advanced Video
Duration : 3 h 34 min
Bit rate mode : Variable
Bit rate : 1 339 kb/s
Maximum bit rate : 4 000 kb/s
Width : 960 pixels
Height : 540 pixels
Display aspect ratio : 16:9
Frame rate mode : Constant
Frame rate : 29.970 (29970/1000) FPS
Color space : YUV
Chroma subsampling : 4:2:0
Bit depth : 8 bits
Scan type : Progressive
Bits/(Pixel*Frame) : 0.086
Stream size : 2.00 GiB (91%)
Default : Yes
Forced : No
Color range : Limited
Color primaries : BT.709
Transfer characteristics : BT.709
Matrix coefficients : BT.709

NOAH Cage War 2021

Audio
ID : 2
Format : AAC LC
Format/Info : Advanced Audio
Codec ID : A_AAC-2
Duration : 3 h 34 min
Bit rate : 125 kb/s
Channel(s) : 2 channels
Channel layout : L R
Sampling rate : 48.0 kHz
Frame rate : 46.875 FPS (1024 SPF)
Compression mode : Lossy
Delay relative to video : 16 ms
Stream size : 192 MiB (9%)
Default : Yes
Forced : No

NOAH Cage War 2021

Complete name : NOAH.2021.06.26.Cage.War.ENGLISH.720p.WEB.h264-LATE.mkv
Format : Matroska
Format version : Version 4
File size : 4.32 GiB
Duration : 3 h 34 min
Overall bit rate mode : Variable
Overall bit rate : 2 889 kb/s

Video
ID : 1
Format : AVC
Format/Info : Advanced Video
Duration : 3 h 34 min
Bit rate mode : Variable
Bit rate : 2 697 kb/s
Maximum bit rate : 8 000 kb/s
Width : 1 280 pixels
Height : 720 pixels
Display aspect ratio : 16:9
Frame rate mode : Constant
Frame rate : 29.970 (29970/1000) FPS
Color space : YUV
Chroma subsampling : 4:2:0
Bit depth : 8 bits
Scan type : Progressive
Bits/(Pixel*Frame) : 0.098
Stream size : 4.04 GiB (93%)
Default : Yes
Forced : No
Color range : Limited
Color primaries : BT.709
Transfer characteristics : BT.709
Matrix coefficients : BT.709

NOAH Cage War 2021

Audio
ID : 2
Format : AAC LC
Format/Info : Advanced Audio
Codec ID : A_AAC-2
Duration : 3 h 34 min
Bit rate : 192 kb/s
Channel(s) : 2 channels
Channel layout : L R
Sampling rate : 48.0 kHz
Frame rate : 46.875 FPS (1024 SPF)
Compression mode : Lossy
Delay relative to video : 16 ms
Stream size : 290 MiB (7%)
Default : Yes
Forced : No

Complete name : NOAH.2021.06.26.Cage.War.ENGLISH.1080p.WEB.h264-LATE.mkv
Format : Matroska
Format version : Version 4
File size : 9.76 GiB
Duration : 3 h 37 min
Overall bit rate mode : Variable
Overall bit rate : 6 422 kb/s

NOAH Cage War 2021

Video
ID : 1
Format : AVC
Format/Info : Advanced Video
Duration : 3 h 37 min
Bit rate mode : Variable
Bit rate : 6 038 kb/s
Maximum bit rate : 18.0 Mb/s
Width : 1 920 pixels
Height : 1 080 pixels
Display aspect ratio : 16:9
Frame rate mode : Constant
Frame rate : 29.970 (29970/1000) FPS
Color space : YUV
Chroma subsampling : 4:2:0
Bit depth : 8 bits
Scan type : Progressive
Bits/(Pixel*Frame) : 0.097
Stream size : 9.18 GiB (94%)
Default : Yes
Forced : No
Color range : Limited
Color primaries : BT.709
Transfer characteristics : BT.709
Matrix coefficients : BT.709

NOAH Cage War 2021

Audio
ID : 2
Format : AAC LC
Format/Info : Advanced Audio
Codec ID : A_AAC-2
Duration : 3 h 37 min
Bit rate : 384 kb/s
Channel(s) : 2 channels
Channel layout : L R
Sampling rate : 48.0 kHz
Frame rate : 46.875 FPS (1024 SPF)
Compression mode : Lossy
Delay relative to video : 2 ms
Stream size : 593 MiB (6%)
Default : Yes
Forced : No

Complete name : NOAH.2021.06.26.Cage.War.ENGLISH.WEB.h264-LATE.mkv
Format : Matroska
Format version : Version 4
File size : 2.19 GiB
Duration : 3 h 34 min
Overall bit rate mode : Variable
Overall bit rate : 1 467 kb/s

NOAH Cage War 2021

Video
ID : 1
Format : AVC
Format/Info : Advanced Video
Duration : 3 h 34 min
Bit rate mode : Variable
Bit rate : 1 339 kb/s
Maximum bit rate : 4 000 kb/s
Width : 960 pixels
Height : 540 pixels
Display aspect ratio : 16:9
Frame rate mode : Constant
Frame rate : 29.970 (29970/1000) FPS
Color space : YUV
Chroma subsampling : 4:2:0
Bit depth : 8 bits
Scan type : Progressive
Bits/(Pixel*Frame) : 0.086
Stream size : 2.00 GiB (91%)
Default : Yes
Forced : No
Color range : Limited
Color primaries : BT.709
Transfer characteristics : BT.709
Matrix coefficients : BT.709

NOAH Cage War 2021

Audio
ID : 2
Format : AAC LC
Format/Info : Advanced Audio
Codec ID : A_AAC-2
Duration : 3 h 34 min
Bit rate : 125 kb/s
Channel(s) : 2 channels
Channel layout : L R
Sampling rate : 48.0 kHz
Frame rate : 46.875 FPS (1024 SPF)
Compression mode : Lossy
Delay relative to video : 16 ms
Stream size : 192 MiB (9%)
Default : Yes
Forced : No

NOAH Cage War 2021

Complete name : NOAH.2021.06.26.Cage.War.ENGLISH.720p.WEB.h264-LATE.mkv
Format : Matroska
Format version : Version 4
File size : 4.32 GiB
Duration : 3 h 34 min
Overall bit rate mode : Variable
Overall bit rate : 2 889 kb/s

Video
ID : 1
Format : AVC
Format/Info : Advanced Video
Duration : 3 h 34 min
Bit rate mode : Variable
Bit rate : 2 697 kb/s
Maximum bit rate : 8 000 kb/s
Width : 1 280 pixels
Height : 720 pixels
Display aspect ratio : 16:9
Frame rate mode : Constant
Frame rate : 29.970 (29970/1000) FPS
Color space : YUV
Chroma subsampling : 4:2:0
Bit depth : 8 bits
Scan type : Progressive
Bits/(Pixel*Frame) : 0.098
Stream size : 4.04 GiB (93%)
Default : Yes
Forced : No
Color range : Limited
Color primaries : BT.709
Transfer characteristics : BT.709
Matrix coefficients : BT.709

NOAH Cage War 2021

Audio
ID : 2
Format : AAC LC
Format/Info : Advanced Audio
Codec ID : A_AAC-2
Duration : 3 h 34 min
Bit rate : 192 kb/s
Channel(s) : 2 channels
Channel layout : L R
Sampling rate : 48.0 kHz
Frame rate : 46.875 FPS (1024 SPF)
Compression mode : Lossy
Delay relative to video : 16 ms
Stream size : 290 MiB (7%)
Default : Yes
Forced : No

Complete name : NOAH.2021.06.26.Cage.War.ENGLISH.1080p.WEB.h264-LATE.mkv
Format : Matroska
Format version : Version 4
File size : 9.76 GiB
Duration : 3 h 37 min
Overall bit rate mode : Variable
Overall bit rate : 6 422 kb/s

NOAH Cage War 2021

Video
ID : 1
Format : AVC
Format/Info : Advanced Video
Duration : 3 h 37 min
Bit rate mode : Variable
Bit rate : 6 038 kb/s
Maximum bit rate : 18.0 Mb/s
Width : 1 920 pixels
Height : 1 080 pixels
Display aspect ratio : 16:9
Frame rate mode : Constant
Frame rate : 29.970 (29970/1000) FPS
Color space : YUV
Chroma subsampling : 4:2:0
Bit depth : 8 bits
Scan type : Progressive
Bits/(Pixel*Frame) : 0.097
Stream size : 9.18 GiB (94%)
Default : Yes
Forced : No
Color range : Limited
Color primaries : BT.709
Transfer characteristics : BT.709
Matrix coefficients : BT.709

NOAH Cage War 2021

Audio
ID : 2
Format : AAC LC
Format/Info : Advanced Audio
Codec ID : A_AAC-2
Duration : 3 h 37 min
Bit rate : 384 kb/s
Channel(s) : 2 channels
Channel layout : L R
Sampling rate : 48.0 kHz
Frame rate : 46.875 FPS (1024 SPF)
Compression mode : Lossy
Delay relative to video : 2 ms
Stream size : 593 MiB (6%)
Default : Yes
Forced : No

Complete name : NOAH.2021.06.26.Cage.War.ENGLISH.WEB.h264-LATE.mkv
Format : Matroska
Format version : Version 4
File size : 2.19 GiB
Duration : 3 h 34 min
Overall bit rate mode : Variable
Overall bit rate : 1 467 kb/s

NOAH Cage War 2021

Video
ID : 1
Format : AVC
Format/Info : Advanced Video
Duration : 3 h 34 min
Bit rate mode : Variable
Bit rate : 1 339 kb/s
Maximum bit rate : 4 000 kb/s
Width : 960 pixels
Height : 540 pixels
Display aspect ratio : 16:9
Frame rate mode : Constant
Frame rate : 29.970 (29970/1000) FPS
Color space : YUV
Chroma subsampling : 4:2:0
Bit depth : 8 bits
Scan type : Progressive
Bits/(Pixel*Frame) : 0.086
Stream size : 2.00 GiB (91%)
Default : Yes
Forced : No
Color range : Limited
Color primaries : BT.709
Transfer characteristics : BT.709
Matrix coefficients : BT.709

NOAH Cage War 2021

Audio
ID : 2
Format : AAC LC
Format/Info : Advanced Audio
Codec ID : A_AAC-2
Duration : 3 h 34 min
Bit rate : 125 kb/s
Channel(s) : 2 channels
Channel layout : L R
Sampling rate : 48.0 kHz
Frame rate : 46.875 FPS (1024 SPF)
Compression mode : Lossy
Delay relative to video : 16 ms
Stream size : 192 MiB (9%)
Default : Yes
Forced : No

NOAH Cage War 2021

Complete name : NOAH.2021.06.26.Cage.War.ENGLISH.720p.WEB.h264-LATE.mkv
Format : Matroska
Format version : Version 4
File size : 4.32 GiB
Duration : 3 h 34 min
Overall bit rate mode : Variable
Overall bit rate : 2 889 kb/s

Video
ID : 1
Format : AVC
Format/Info : Advanced Video
Duration : 3 h 34 min
Bit rate mode : Variable
Bit rate : 2 697 kb/s
Maximum bit rate : 8 000 kb/s
Width : 1 280 pixels
Height : 720 pixels
Display aspect ratio : 16:9
Frame rate mode : Constant
Frame rate : 29.970 (29970/1000) FPS
Color space : YUV
Chroma subsampling : 4:2:0
Bit depth : 8 bits
Scan type : Progressive
Bits/(Pixel*Frame) : 0.098
Stream size : 4.04 GiB (93%)
Default : Yes
Forced : No
Color range : Limited
Color primaries : BT.709
Transfer characteristics : BT.709
Matrix coefficients : BT.709

NOAH Cage War 2021

Audio
ID : 2
Format : AAC LC
Format/Info : Advanced Audio
Codec ID : A_AAC-2
Duration : 3 h 34 min
Bit rate : 192 kb/s
Channel(s) : 2 channels
Channel layout : L R
Sampling rate : 48.0 kHz
Frame rate : 46.875 FPS (1024 SPF)
Compression mode : Lossy
Delay relative to video : 16 ms
Stream size : 290 MiB (7%)
Default : Yes
Forced : No

Complete name : NOAH.2021.06.26.Cage.War.ENGLISH.1080p.WEB.h264-LATE.mkv
Format : Matroska
Format version : Version 4
File size : 9.76 GiB
Duration : 3 h 37 min
Overall bit rate mode : Variable
Overall bit rate : 6 422 kb/s

NOAH Cage War 2021

Video
ID : 1
Format : AVC
Format/Info : Advanced Video
Duration : 3 h 37 min
Bit rate mode : Variable
Bit rate : 6 038 kb/s
Maximum bit rate : 18.0 Mb/s
Width : 1 920 pixels
Height : 1 080 pixels
Display aspect ratio : 16:9
Frame rate mode : Constant
Frame rate : 29.970 (29970/1000) FPS
Color space : YUV
Chroma subsampling : 4:2:0
Bit depth : 8 bits
Scan type : Progressive
Bits/(Pixel*Frame) : 0.097
Stream size : 9.18 GiB (94%)
Default : Yes
Forced : No
Color range : Limited
Color primaries : BT.709
Transfer characteristics : BT.709
Matrix coefficients : BT.709

NOAH Cage War 2021

Audio
ID : 2
Format : AAC LC
Format/Info : Advanced Audio
Codec ID : A_AAC-2
Duration : 3 h 37 min
Bit rate : 384 kb/s
Channel(s) : 2 channels
Channel layout : L R
Sampling rate : 48.0 kHz
Frame rate : 46.875 FPS (1024 SPF)
Compression mode : Lossy
Delay relative to video : 2 ms
Stream size : 593 MiB (6%)
Default : Yes
Forced : No

Complete name : NOAH.2021.06.26.Cage.War.ENGLISH.WEB.h264-LATE.mkv
Format : Matroska
Format version : Version 4
File size : 2.19 GiB
Duration : 3 h 34 min
Overall bit rate mode : Variable
Overall bit rate : 1 467 kb/s

NOAH Cage War 2021

Video
ID : 1
Format : AVC
Format/Info : Advanced Video
Duration : 3 h 34 min
Bit rate mode : Variable
Bit rate : 1 339 kb/s
Maximum bit rate : 4 000 kb/s
Width : 960 pixels
Height : 540 pixels
Display aspect ratio : 16:9
Frame rate mode : Constant
Frame rate : 29.970 (29970/1000) FPS
Color space : YUV
Chroma subsampling : 4:2:0
Bit depth : 8 bits
Scan type : Progressive
Bits/(Pixel*Frame) : 0.086
Stream size : 2.00 GiB (91%)
Default : Yes
Forced : No
Color range : Limited
Color primaries : BT.709
Transfer characteristics : BT.709
Matrix coefficients : BT.709

NOAH Cage War 2021

Audio
ID : 2
Format : AAC LC
Format/Info : Advanced Audio
Codec ID : A_AAC-2
Duration : 3 h 34 min
Bit rate : 125 kb/s
Channel(s) : 2 channels
Channel layout : L R
Sampling rate : 48.0 kHz
Frame rate : 46.875 FPS (1024 SPF)
Compression mode : Lossy
Delay relative to video : 16 ms
Stream size : 192 MiB (9%)
Default : Yes
Forced : No

NOAH Cage War 2021

Complete name : NOAH.2021.06.26.Cage.War.ENGLISH.720p.WEB.h264-LATE.mkv
Format : Matroska
Format version : Version 4
File size : 4.32 GiB
Duration : 3 h 34 min
Overall bit rate mode : Variable
Overall bit rate : 2 889 kb/s

Video
ID : 1
Format : AVC
Format/Info : Advanced Video
Duration : 3 h 34 min
Bit rate mode : Variable
Bit rate : 2 697 kb/s
Maximum bit rate : 8 000 kb/s
Width : 1 280 pixels
Height : 720 pixels
Display aspect ratio : 16:9
Frame rate mode : Constant
Frame rate : 29.970 (29970/1000) FPS
Color space : YUV
Chroma subsampling : 4:2:0
Bit depth : 8 bits
Scan type : Progressive
Bits/(Pixel*Frame) : 0.098
Stream size : 4.04 GiB (93%)
Default : Yes
Forced : No
Color range : Limited
Color primaries : BT.709
Transfer characteristics : BT.709
Matrix coefficients : BT.709

NOAH Cage War 2021

Audio
ID : 2
Format : AAC LC
Format/Info : Advanced Audio
Codec ID : A_AAC-2
Duration : 3 h 34 min
Bit rate : 192 kb/s
Channel(s) : 2 channels
Channel layout : L R
Sampling rate : 48.0 kHz
Frame rate : 46.875 FPS (1024 SPF)
Compression mode : Lossy
Delay relative to video : 16 ms
Stream size : 290 MiB (7%)
Default : Yes
Forced : No

Complete name : NOAH.2021.06.26.Cage.War.ENGLISH.1080p.WEB.h264-LATE.mkv
Format : Matroska
Format version : Version 4
File size : 9.76 GiB
Duration : 3 h 37 min
Overall bit rate mode : Variable
Overall bit rate : 6 422 kb/s

NOAH Cage War 2021

Video
ID : 1
Format : AVC
Format/Info : Advanced Video
Duration : 3 h 37 min
Bit rate mode : Variable
Bit rate : 6 038 kb/s
Maximum bit rate : 18.0 Mb/s
Width : 1 920 pixels
Height : 1 080 pixels
Display aspect ratio : 16:9
Frame rate mode : Constant
Frame rate : 29.970 (29970/1000) FPS
Color space : YUV
Chroma subsampling : 4:2:0
Bit depth : 8 bits
Scan type : Progressive
Bits/(Pixel*Frame) : 0.097
Stream size : 9.18 GiB (94%)
Default : Yes
Forced : No
Color range : Limited
Color primaries : BT.709
Transfer characteristics : BT.709
Matrix coefficients : BT.709

NOAH Cage War 2021

Audio
ID : 2
Format : AAC LC
Format/Info : Advanced Audio
Codec ID : A_AAC-2
Duration : 3 h 37 min
Bit rate : 384 kb/s
Channel(s) : 2 channels
Channel layout : L R
Sampling rate : 48.0 kHz
Frame rate : 46.875 FPS (1024 SPF)
Compression mode : Lossy
Delay relative to video : 2 ms
Stream size : 593 MiB (6%)
Default : Yes
Forced : No

Complete name : NOAH.2021.06.26.Cage.War.ENGLISH.WEB.h264-LATE.mkv
Format : Matroska
Format version : Version 4
File size : 2.19 GiB
Duration : 3 h 34 min
Overall bit rate mode : Variable
Overall bit rate : 1 467 kb/s

NOAH Cage War 2021

Video
ID : 1
Format : AVC
Format/Info : Advanced Video
Duration : 3 h 34 min
Bit rate mode : Variable
Bit rate : 1 339 kb/s
Maximum bit rate : 4 000 kb/s
Width : 960 pixels
Height : 540 pixels
Display aspect ratio : 16:9
Frame rate mode : Constant
Frame rate : 29.970 (29970/1000) FPS
Color space : YUV
Chroma subsampling : 4:2:0
Bit depth : 8 bits
Scan type : Progressive
Bits/(Pixel*Frame) : 0.086
Stream size : 2.00 GiB (91%)
Default : Yes
Forced : No
Color range : Limited
Color primaries : BT.709
Transfer characteristics : BT.709
Matrix coefficients : BT.709

NOAH Cage War 2021

Audio
ID : 2
Format : AAC LC
Format/Info : Advanced Audio
Codec ID : A_AAC-2
Duration : 3 h 34 min
Bit rate : 125 kb/s
Channel(s) : 2 channels
Channel layout : L R
Sampling rate : 48.0 kHz
Frame rate : 46.875 FPS (1024 SPF)
Compression mode : Lossy
Delay relative to video : 16 ms
Stream size : 192 MiB (9%)
Default : Yes
Forced : No

NOAH Cage War 2021

 

[collapse]

 

 

https://dx-tv.com/

Leave a Reply

Your email address will not be published. Required fields are marked *

This site uses Akismet to reduce spam. Learn how your comment data is processed.

Previous Post
ICW pitfighter x7

ICW pitfighter x7 Online Free 2021 06 25

Next Post
AJPW

AJPW Champions Night 2021 06 26 Online Free