NOAH 2021 08 05 Departure.2021 Day 1 Online Free

NOAH 2021 08 05 Departure.2021 Day 1 Japan Online Free Replay DX-TV

NOAH 2021

 NOAH 2021

 

 

 

Download Links with premium High Speed


Dopapk

 

 

Show Links

 

http://shrt10.com/1lAsltzUT
http://shrt10.com/V1U7G1
http://shrt10.com/lxZEuN

 

[collapse]

 

 

Nitroflare

 

 

Show Links

 

http://shrt10.com/cs6fE9W
http://shrt10.com/Mvz1B
http://shrt10.com/x4fLGbUno

 

[collapse]

 

 

Rapidgator

 

 

Show Links

 

http://shrt10.com/doc3iK0ua
http://shrt10.com/GeIVqG
http://shrt10.com/VgzAGZV

 

[collapse]

 

 

Uploaded

 

 

Show Links

 

http://shrt10.com/68PZUY
http://shrt10.com/hrhLD

 

[collapse]

 

 

Watch online

 

Server 1

 

 

 

 

NOAH 2021

 

 

 

 

Server-2

 

 

 

 

watch now

 

 

 

|Server-3

 

 

 

 

watch now

 

 

Uploaded By Site DX-TV.com

 

 

Show Info This Show

NOAH 2021

 

Complete name : NOAH.2021.08.05.Departure.2021.Day.1.JAPANESE.720p.WEB.h264-LATE.mkv
Format : Matroska
Format version : Version 4
File size : 3.29 GiB
Duration : 2 h 53 min
Overall bit rate mode : Variable
Overall bit rate : 2 709 kb/s

Video
ID : 1
Format : AVC
Duration : 2 h 53 min
Bit rate mode : Variable
Bit rate : 2 517 kb/s
Maximum bit rate : 8 000 kb/s
Width : 1 280 pixels
Height : 720 pixels
Display aspect ratio : 16:9
Frame rate mode : Constant
Frame rate : 29.970 (30000/1001) FPS
Color space : YUV
Chroma subsampling : 4:2:0
Bit depth : 8 bits
Scan type : Progressive
Bits/(Pixel*Frame) : 0.091
Stream size : 3.06 GiB (93%)
Default : Yes
Forced : No
Color range : Limited
Color primaries : BT.709
Transfer characteristics : BT.709
Matrix coefficients : BT.709

NOAH 2021

Audio
ID : 2
Format : AAC LC
Format/Info : Advanced Audio
Codec ID : A_AAC-2
Duration : 2 h 53 min
Bit rate : 192 kb/s
Channel(s) : 2 channels
Channel layout : L R
Sampling rate : 48.0 kHz
Frame rate : 46.875 FPS (1024 SPF)
Compression mode : Lossy
Stream size : 235 MiB (7%)
Default : Yes
Forced : No

Complete name : NOAH.2021.08.05.Departure.2021.Day.1.JAPANESE.1080p.WEB.h264-LATE.mkv
Format : Matroska
Format version : Version 4
File size : 7.38 GiB
Duration : 2 h 53 min
Overall bit rate mode : Variable
Overall bit rate : 6 083 kb/s

NOAH 2021

Video
ID : 1
Format : AVC
Format/Info : Advanced Video
Duration : 2 h 53 min
Bit rate mode : Variable
Bit rate : 5 699 kb/s
Maximum bit rate : 18.0 Mb/s
Width : 1 920 pixels
Height : 1 080 pixels
Display aspect ratio : 16:9
Frame rate mode : Constant
Frame rate : 29.970 (30000/1001) FPS
Color space : YUV
Chroma subsampling : 4:2:0
Bit depth : 8 bits
Scan type : Progressive
Bits/(Pixel*Frame) : 0.092
Stream size : 6.92 GiB (94%)
Default : Yes
Forced : No
Color range : Limited
Color primaries : BT.709
Transfer characteristics : BT.709
Matrix coefficients : BT.709

Audio
ID : 2
Format : AAC LC
Codec ID : A_AAC-2
Duration : 2 h 53 min
Bit rate : 384 kb/s
Channel(s) : 2 channels
Channel layout : L R
Sampling rate : 48.0 kHz
Frame rate : 46.875 FPS (1024 SPF)
Compression mode : Lossy
Stream size : 474 MiB (6%)
Default : Yes
Forced : No

NOAH 2021

Complete name : NOAH.2021.08.05.Departure.2021.Day.1.JAPANESE.WEB.h264-LATE.mkv
Format : Matroska
Format version : Version 4
File size : 1.71 GiB
Duration : 2 h 53 min
Overall bit rate mode : Variable
Overall bit rate : 1 407 kb/s

Video
ID : 1
Format : AVC
Format/Info : Advanced Video
Duration : 2 h 53 min
Bit rate mode : Variable
Bit rate : 1 279 kb/s
Maximum bit rate : 4 000 kb/s
Width : 960 pixels
Height : 540 pixels
Display aspect ratio : 16:9
Frame rate mode : Constant
Frame rate : 29.970 (30000/1001) FPS
Color space : YUV
Chroma subsampling : 4:2:0
Bit depth : 8 bits
Scan type : Progressive
Bits/(Pixel*Frame) : 0.082
Stream size : 1.55 GiB (91%)
Default : Yes
Forced : No
Color range : Limited
Color primaries : BT.709
Transfer characteristics : BT.709
Matrix coefficients : BT.709

NOAH 2021

Audio
ID : 2
Format : AAC LC
Codec ID : A_AAC-2
Duration : 2 h 53 min
Bit rate : 125 kb/s
Channel(s) : 2 channels
Channel layout : L R
Sampling rate : 48.0 kHz
Frame rate : 46.875 FPS (1024 SPF)
Compression mode : Lossy
Stream size : 156 MiB (9%)
Default : Yes
Forced : No

NOAH 2021

Complete name : NOAH.2021.08.05.Departure.2021.Day.1.JAPANESE.720p.WEB.h264-LATE.mkv
Format : Matroska
Format version : Version 4
File size : 3.29 GiB
Duration : 2 h 53 min
Overall bit rate mode : Variable
Overall bit rate : 2 709 kb/s

Video
ID : 1
Format : AVC
Duration : 2 h 53 min
Bit rate mode : Variable
Bit rate : 2 517 kb/s
Maximum bit rate : 8 000 kb/s
Width : 1 280 pixels
Height : 720 pixels
Display aspect ratio : 16:9
Frame rate mode : Constant
Frame rate : 29.970 (30000/1001) FPS
Color space : YUV
Chroma subsampling : 4:2:0
Bit depth : 8 bits
Scan type : Progressive
Bits/(Pixel*Frame) : 0.091
Stream size : 3.06 GiB (93%)
Default : Yes
Forced : No
Color range : Limited
Color primaries : BT.709
Transfer characteristics : BT.709
Matrix coefficients : BT.709

NOAH 2021

Audio
ID : 2
Format : AAC LC
Format/Info : Advanced Audio
Codec ID : A_AAC-2
Duration : 2 h 53 min
Bit rate : 192 kb/s
Channel(s) : 2 channels
Channel layout : L R
Sampling rate : 48.0 kHz
Frame rate : 46.875 FPS (1024 SPF)
Compression mode : Lossy
Stream size : 235 MiB (7%)
Default : Yes
Forced : No

Complete name : NOAH.2021.08.05.Departure.2021.Day.1.JAPANESE.1080p.WEB.h264-LATE.mkv
Format : Matroska
Format version : Version 4
File size : 7.38 GiB
Duration : 2 h 53 min
Overall bit rate mode : Variable
Overall bit rate : 6 083 kb/s

NOAH 2021

Video
ID : 1
Format : AVC
Format/Info : Advanced Video
Duration : 2 h 53 min
Bit rate mode : Variable
Bit rate : 5 699 kb/s
Maximum bit rate : 18.0 Mb/s
Width : 1 920 pixels
Height : 1 080 pixels
Display aspect ratio : 16:9
Frame rate mode : Constant
Frame rate : 29.970 (30000/1001) FPS
Color space : YUV
Chroma subsampling : 4:2:0
Bit depth : 8 bits
Scan type : Progressive
Bits/(Pixel*Frame) : 0.092
Stream size : 6.92 GiB (94%)
Default : Yes
Forced : No
Color range : Limited
Color primaries : BT.709
Transfer characteristics : BT.709
Matrix coefficients : BT.709

Audio
ID : 2
Format : AAC LC
Codec ID : A_AAC-2
Duration : 2 h 53 min
Bit rate : 384 kb/s
Channel(s) : 2 channels
Channel layout : L R
Sampling rate : 48.0 kHz
Frame rate : 46.875 FPS (1024 SPF)
Compression mode : Lossy
Stream size : 474 MiB (6%)
Default : Yes
Forced : No

NOAH 2021

Complete name : NOAH.2021.08.05.Departure.2021.Day.1.JAPANESE.WEB.h264-LATE.mkv
Format : Matroska
Format version : Version 4
File size : 1.71 GiB
Duration : 2 h 53 min
Overall bit rate mode : Variable
Overall bit rate : 1 407 kb/s

Video
ID : 1
Format : AVC
Format/Info : Advanced Video
Duration : 2 h 53 min
Bit rate mode : Variable
Bit rate : 1 279 kb/s
Maximum bit rate : 4 000 kb/s
Width : 960 pixels
Height : 540 pixels
Display aspect ratio : 16:9
Frame rate mode : Constant
Frame rate : 29.970 (30000/1001) FPS
Color space : YUV
Chroma subsampling : 4:2:0
Bit depth : 8 bits
Scan type : Progressive
Bits/(Pixel*Frame) : 0.082
Stream size : 1.55 GiB (91%)
Default : Yes
Forced : No
Color range : Limited
Color primaries : BT.709
Transfer characteristics : BT.709
Matrix coefficients : BT.709

NOAH 2021

Audio
ID : 2
Format : AAC LC
Codec ID : A_AAC-2
Duration : 2 h 53 min
Bit rate : 125 kb/s
Channel(s) : 2 channels
Channel layout : L R
Sampling rate : 48.0 kHz
Frame rate : 46.875 FPS (1024 SPF)
Compression mode : Lossy
Stream size : 156 MiB (9%)
Default : Yes
Forced : No

NOAH 2021

Complete name : NOAH.2021.08.05.Departure.2021.Day.1.JAPANESE.720p.WEB.h264-LATE.mkv
Format : Matroska
Format version : Version 4
File size : 3.29 GiB
Duration : 2 h 53 min
Overall bit rate mode : Variable
Overall bit rate : 2 709 kb/s

Video
ID : 1
Format : AVC
Duration : 2 h 53 min
Bit rate mode : Variable
Bit rate : 2 517 kb/s
Maximum bit rate : 8 000 kb/s
Width : 1 280 pixels
Height : 720 pixels
Display aspect ratio : 16:9
Frame rate mode : Constant
Frame rate : 29.970 (30000/1001) FPS
Color space : YUV
Chroma subsampling : 4:2:0
Bit depth : 8 bits
Scan type : Progressive
Bits/(Pixel*Frame) : 0.091
Stream size : 3.06 GiB (93%)
Default : Yes
Forced : No
Color range : Limited
Color primaries : BT.709
Transfer characteristics : BT.709
Matrix coefficients : BT.709

NOAH 2021

Audio
ID : 2
Format : AAC LC
Format/Info : Advanced Audio
Codec ID : A_AAC-2
Duration : 2 h 53 min
Bit rate : 192 kb/s
Channel(s) : 2 channels
Channel layout : L R
Sampling rate : 48.0 kHz
Frame rate : 46.875 FPS (1024 SPF)
Compression mode : Lossy
Stream size : 235 MiB (7%)
Default : Yes
Forced : No

Complete name : NOAH.2021.08.05.Departure.2021.Day.1.JAPANESE.1080p.WEB.h264-LATE.mkv
Format : Matroska
Format version : Version 4
File size : 7.38 GiB
Duration : 2 h 53 min
Overall bit rate mode : Variable
Overall bit rate : 6 083 kb/s

NOAH 2021

Video
ID : 1
Format : AVC
Format/Info : Advanced Video
Duration : 2 h 53 min
Bit rate mode : Variable
Bit rate : 5 699 kb/s
Maximum bit rate : 18.0 Mb/s
Width : 1 920 pixels
Height : 1 080 pixels
Display aspect ratio : 16:9
Frame rate mode : Constant
Frame rate : 29.970 (30000/1001) FPS
Color space : YUV
Chroma subsampling : 4:2:0
Bit depth : 8 bits
Scan type : Progressive
Bits/(Pixel*Frame) : 0.092
Stream size : 6.92 GiB (94%)
Default : Yes
Forced : No
Color range : Limited
Color primaries : BT.709
Transfer characteristics : BT.709
Matrix coefficients : BT.709

Audio
ID : 2
Format : AAC LC
Codec ID : A_AAC-2
Duration : 2 h 53 min
Bit rate : 384 kb/s
Channel(s) : 2 channels
Channel layout : L R
Sampling rate : 48.0 kHz
Frame rate : 46.875 FPS (1024 SPF)
Compression mode : Lossy
Stream size : 474 MiB (6%)
Default : Yes
Forced : No

NOAH 2021

Complete name : NOAH.2021.08.05.Departure.2021.Day.1.JAPANESE.WEB.h264-LATE.mkv
Format : Matroska
Format version : Version 4
File size : 1.71 GiB
Duration : 2 h 53 min
Overall bit rate mode : Variable
Overall bit rate : 1 407 kb/s

Video
ID : 1
Format : AVC
Format/Info : Advanced Video
Duration : 2 h 53 min
Bit rate mode : Variable
Bit rate : 1 279 kb/s
Maximum bit rate : 4 000 kb/s
Width : 960 pixels
Height : 540 pixels
Display aspect ratio : 16:9
Frame rate mode : Constant
Frame rate : 29.970 (30000/1001) FPS
Color space : YUV
Chroma subsampling : 4:2:0
Bit depth : 8 bits
Scan type : Progressive
Bits/(Pixel*Frame) : 0.082
Stream size : 1.55 GiB (91%)
Default : Yes
Forced : No
Color range : Limited
Color primaries : BT.709
Transfer characteristics : BT.709
Matrix coefficients : BT.709

NOAH 2021

Audio
ID : 2
Format : AAC LC
Codec ID : A_AAC-2
Duration : 2 h 53 min
Bit rate : 125 kb/s
Channel(s) : 2 channels
Channel layout : L R
Sampling rate : 48.0 kHz
Frame rate : 46.875 FPS (1024 SPF)
Compression mode : Lossy
Stream size : 156 MiB (9%)
Default : Yes
Forced : No

NOAH 2021

Complete name : NOAH.2021.08.05.Departure.2021.Day.1.JAPANESE.720p.WEB.h264-LATE.mkv
Format : Matroska
Format version : Version 4
File size : 3.29 GiB
Duration : 2 h 53 min
Overall bit rate mode : Variable
Overall bit rate : 2 709 kb/s

Video
ID : 1
Format : AVC
Duration : 2 h 53 min
Bit rate mode : Variable
Bit rate : 2 517 kb/s
Maximum bit rate : 8 000 kb/s
Width : 1 280 pixels
Height : 720 pixels
Display aspect ratio : 16:9
Frame rate mode : Constant
Frame rate : 29.970 (30000/1001) FPS
Color space : YUV
Chroma subsampling : 4:2:0
Bit depth : 8 bits
Scan type : Progressive
Bits/(Pixel*Frame) : 0.091
Stream size : 3.06 GiB (93%)
Default : Yes
Forced : No
Color range : Limited
Color primaries : BT.709
Transfer characteristics : BT.709
Matrix coefficients : BT.709

NOAH 2021

Audio
ID : 2
Format : AAC LC
Format/Info : Advanced Audio
Codec ID : A_AAC-2
Duration : 2 h 53 min
Bit rate : 192 kb/s
Channel(s) : 2 channels
Channel layout : L R
Sampling rate : 48.0 kHz
Frame rate : 46.875 FPS (1024 SPF)
Compression mode : Lossy
Stream size : 235 MiB (7%)
Default : Yes
Forced : No

Complete name : NOAH.2021.08.05.Departure.2021.Day.1.JAPANESE.1080p.WEB.h264-LATE.mkv
Format : Matroska
Format version : Version 4
File size : 7.38 GiB
Duration : 2 h 53 min
Overall bit rate mode : Variable
Overall bit rate : 6 083 kb/s

NOAH 2021

Video
ID : 1
Format : AVC
Format/Info : Advanced Video
Duration : 2 h 53 min
Bit rate mode : Variable
Bit rate : 5 699 kb/s
Maximum bit rate : 18.0 Mb/s
Width : 1 920 pixels
Height : 1 080 pixels
Display aspect ratio : 16:9
Frame rate mode : Constant
Frame rate : 29.970 (30000/1001) FPS
Color space : YUV
Chroma subsampling : 4:2:0
Bit depth : 8 bits
Scan type : Progressive
Bits/(Pixel*Frame) : 0.092
Stream size : 6.92 GiB (94%)
Default : Yes
Forced : No
Color range : Limited
Color primaries : BT.709
Transfer characteristics : BT.709
Matrix coefficients : BT.709

Audio
ID : 2
Format : AAC LC
Codec ID : A_AAC-2
Duration : 2 h 53 min
Bit rate : 384 kb/s
Channel(s) : 2 channels
Channel layout : L R
Sampling rate : 48.0 kHz
Frame rate : 46.875 FPS (1024 SPF)
Compression mode : Lossy
Stream size : 474 MiB (6%)
Default : Yes
Forced : No

NOAH 2021

Complete name : NOAH.2021.08.05.Departure.2021.Day.1.JAPANESE.WEB.h264-LATE.mkv
Format : Matroska
Format version : Version 4
File size : 1.71 GiB
Duration : 2 h 53 min
Overall bit rate mode : Variable
Overall bit rate : 1 407 kb/s

Video
ID : 1
Format : AVC
Format/Info : Advanced Video
Duration : 2 h 53 min
Bit rate mode : Variable
Bit rate : 1 279 kb/s
Maximum bit rate : 4 000 kb/s
Width : 960 pixels
Height : 540 pixels
Display aspect ratio : 16:9
Frame rate mode : Constant
Frame rate : 29.970 (30000/1001) FPS
Color space : YUV
Chroma subsampling : 4:2:0
Bit depth : 8 bits
Scan type : Progressive
Bits/(Pixel*Frame) : 0.082
Stream size : 1.55 GiB (91%)
Default : Yes
Forced : No
Color range : Limited
Color primaries : BT.709
Transfer characteristics : BT.709
Matrix coefficients : BT.709

NOAH 2021

Audio
ID : 2
Format : AAC LC
Codec ID : A_AAC-2
Duration : 2 h 53 min
Bit rate : 125 kb/s
Channel(s) : 2 channels
Channel layout : L R
Sampling rate : 48.0 kHz
Frame rate : 46.875 FPS (1024 SPF)
Compression mode : Lossy
Stream size : 156 MiB (9%)
Default : Yes
Forced : No

NOAH 2021

Complete name : NOAH.2021.08.05.Departure.2021.Day.1.JAPANESE.720p.WEB.h264-LATE.mkv
Format : Matroska
Format version : Version 4
File size : 3.29 GiB
Duration : 2 h 53 min
Overall bit rate mode : Variable
Overall bit rate : 2 709 kb/s

Video
ID : 1
Format : AVC
Duration : 2 h 53 min
Bit rate mode : Variable
Bit rate : 2 517 kb/s
Maximum bit rate : 8 000 kb/s
Width : 1 280 pixels
Height : 720 pixels
Display aspect ratio : 16:9
Frame rate mode : Constant
Frame rate : 29.970 (30000/1001) FPS
Color space : YUV
Chroma subsampling : 4:2:0
Bit depth : 8 bits
Scan type : Progressive
Bits/(Pixel*Frame) : 0.091
Stream size : 3.06 GiB (93%)
Default : Yes
Forced : No
Color range : Limited
Color primaries : BT.709
Transfer characteristics : BT.709
Matrix coefficients : BT.709

NOAH 2021

Audio
ID : 2
Format : AAC LC
Format/Info : Advanced Audio
Codec ID : A_AAC-2
Duration : 2 h 53 min
Bit rate : 192 kb/s
Channel(s) : 2 channels
Channel layout : L R
Sampling rate : 48.0 kHz
Frame rate : 46.875 FPS (1024 SPF)
Compression mode : Lossy
Stream size : 235 MiB (7%)
Default : Yes
Forced : No

Complete name : NOAH.2021.08.05.Departure.2021.Day.1.JAPANESE.1080p.WEB.h264-LATE.mkv
Format : Matroska
Format version : Version 4
File size : 7.38 GiB
Duration : 2 h 53 min
Overall bit rate mode : Variable
Overall bit rate : 6 083 kb/s

NOAH 2021

Video
ID : 1
Format : AVC
Format/Info : Advanced Video
Duration : 2 h 53 min
Bit rate mode : Variable
Bit rate : 5 699 kb/s
Maximum bit rate : 18.0 Mb/s
Width : 1 920 pixels
Height : 1 080 pixels
Display aspect ratio : 16:9
Frame rate mode : Constant
Frame rate : 29.970 (30000/1001) FPS
Color space : YUV
Chroma subsampling : 4:2:0
Bit depth : 8 bits
Scan type : Progressive
Bits/(Pixel*Frame) : 0.092
Stream size : 6.92 GiB (94%)
Default : Yes
Forced : No
Color range : Limited
Color primaries : BT.709
Transfer characteristics : BT.709
Matrix coefficients : BT.709

Audio
ID : 2
Format : AAC LC
Codec ID : A_AAC-2
Duration : 2 h 53 min
Bit rate : 384 kb/s
Channel(s) : 2 channels
Channel layout : L R
Sampling rate : 48.0 kHz
Frame rate : 46.875 FPS (1024 SPF)
Compression mode : Lossy
Stream size : 474 MiB (6%)
Default : Yes
Forced : No

NOAH 2021

Complete name : NOAH.2021.08.05.Departure.2021.Day.1.JAPANESE.WEB.h264-LATE.mkv
Format : Matroska
Format version : Version 4
File size : 1.71 GiB
Duration : 2 h 53 min
Overall bit rate mode : Variable
Overall bit rate : 1 407 kb/s

Video
ID : 1
Format : AVC
Format/Info : Advanced Video
Duration : 2 h 53 min
Bit rate mode : Variable
Bit rate : 1 279 kb/s
Maximum bit rate : 4 000 kb/s
Width : 960 pixels
Height : 540 pixels
Display aspect ratio : 16:9
Frame rate mode : Constant
Frame rate : 29.970 (30000/1001) FPS
Color space : YUV
Chroma subsampling : 4:2:0
Bit depth : 8 bits
Scan type : Progressive
Bits/(Pixel*Frame) : 0.082
Stream size : 1.55 GiB (91%)
Default : Yes
Forced : No
Color range : Limited
Color primaries : BT.709
Transfer characteristics : BT.709
Matrix coefficients : BT.709

NOAH 2021

Audio
ID : 2
Format : AAC LC
Codec ID : A_AAC-2
Duration : 2 h 53 min
Bit rate : 125 kb/s
Channel(s) : 2 channels
Channel layout : L R
Sampling rate : 48.0 kHz
Frame rate : 46.875 FPS (1024 SPF)
Compression mode : Lossy
Stream size : 156 MiB (9%)
Default : Yes
Forced : No

NOAH 2021

Complete name : NOAH.2021.08.05.Departure.2021.Day.1.JAPANESE.720p.WEB.h264-LATE.mkv
Format : Matroska
Format version : Version 4
File size : 3.29 GiB
Duration : 2 h 53 min
Overall bit rate mode : Variable
Overall bit rate : 2 709 kb/s

Video
ID : 1
Format : AVC
Duration : 2 h 53 min
Bit rate mode : Variable
Bit rate : 2 517 kb/s
Maximum bit rate : 8 000 kb/s
Width : 1 280 pixels
Height : 720 pixels
Display aspect ratio : 16:9
Frame rate mode : Constant
Frame rate : 29.970 (30000/1001) FPS
Color space : YUV
Chroma subsampling : 4:2:0
Bit depth : 8 bits
Scan type : Progressive
Bits/(Pixel*Frame) : 0.091
Stream size : 3.06 GiB (93%)
Default : Yes
Forced : No
Color range : Limited
Color primaries : BT.709
Transfer characteristics : BT.709
Matrix coefficients : BT.709

NOAH 2021

Audio
ID : 2
Format : AAC LC
Format/Info : Advanced Audio
Codec ID : A_AAC-2
Duration : 2 h 53 min
Bit rate : 192 kb/s
Channel(s) : 2 channels
Channel layout : L R
Sampling rate : 48.0 kHz
Frame rate : 46.875 FPS (1024 SPF)
Compression mode : Lossy
Stream size : 235 MiB (7%)
Default : Yes
Forced : No

Complete name : NOAH.2021.08.05.Departure.2021.Day.1.JAPANESE.1080p.WEB.h264-LATE.mkv
Format : Matroska
Format version : Version 4
File size : 7.38 GiB
Duration : 2 h 53 min
Overall bit rate mode : Variable
Overall bit rate : 6 083 kb/s

NOAH 2021

Video
ID : 1
Format : AVC
Format/Info : Advanced Video
Duration : 2 h 53 min
Bit rate mode : Variable
Bit rate : 5 699 kb/s
Maximum bit rate : 18.0 Mb/s
Width : 1 920 pixels
Height : 1 080 pixels
Display aspect ratio : 16:9
Frame rate mode : Constant
Frame rate : 29.970 (30000/1001) FPS
Color space : YUV
Chroma subsampling : 4:2:0
Bit depth : 8 bits
Scan type : Progressive
Bits/(Pixel*Frame) : 0.092
Stream size : 6.92 GiB (94%)
Default : Yes
Forced : No
Color range : Limited
Color primaries : BT.709
Transfer characteristics : BT.709
Matrix coefficients : BT.709

Audio
ID : 2
Format : AAC LC
Codec ID : A_AAC-2
Duration : 2 h 53 min
Bit rate : 384 kb/s
Channel(s) : 2 channels
Channel layout : L R
Sampling rate : 48.0 kHz
Frame rate : 46.875 FPS (1024 SPF)
Compression mode : Lossy
Stream size : 474 MiB (6%)
Default : Yes
Forced : No

NOAH 2021

Complete name : NOAH.2021.08.05.Departure.2021.Day.1.JAPANESE.WEB.h264-LATE.mkv
Format : Matroska
Format version : Version 4
File size : 1.71 GiB
Duration : 2 h 53 min
Overall bit rate mode : Variable
Overall bit rate : 1 407 kb/s

Video
ID : 1
Format : AVC
Format/Info : Advanced Video
Duration : 2 h 53 min
Bit rate mode : Variable
Bit rate : 1 279 kb/s
Maximum bit rate : 4 000 kb/s
Width : 960 pixels
Height : 540 pixels
Display aspect ratio : 16:9
Frame rate mode : Constant
Frame rate : 29.970 (30000/1001) FPS
Color space : YUV
Chroma subsampling : 4:2:0
Bit depth : 8 bits
Scan type : Progressive
Bits/(Pixel*Frame) : 0.082
Stream size : 1.55 GiB (91%)
Default : Yes
Forced : No
Color range : Limited
Color primaries : BT.709
Transfer characteristics : BT.709
Matrix coefficients : BT.709

NOAH 2021

Audio
ID : 2
Format : AAC LC
Codec ID : A_AAC-2
Duration : 2 h 53 min
Bit rate : 125 kb/s
Channel(s) : 2 channels
Channel layout : L R
Sampling rate : 48.0 kHz
Frame rate : 46.875 FPS (1024 SPF)
Compression mode : Lossy
Stream size : 156 MiB (9%)
Default : Yes
Forced : No

NOAH 2021

Complete name : NOAH.2021.08.05.Departure.2021.Day.1.JAPANESE.720p.WEB.h264-LATE.mkv
Format : Matroska
Format version : Version 4
File size : 3.29 GiB
Duration : 2 h 53 min
Overall bit rate mode : Variable
Overall bit rate : 2 709 kb/s

Video
ID : 1
Format : AVC
Duration : 2 h 53 min
Bit rate mode : Variable
Bit rate : 2 517 kb/s
Maximum bit rate : 8 000 kb/s
Width : 1 280 pixels
Height : 720 pixels
Display aspect ratio : 16:9
Frame rate mode : Constant
Frame rate : 29.970 (30000/1001) FPS
Color space : YUV
Chroma subsampling : 4:2:0
Bit depth : 8 bits
Scan type : Progressive
Bits/(Pixel*Frame) : 0.091
Stream size : 3.06 GiB (93%)
Default : Yes
Forced : No
Color range : Limited
Color primaries : BT.709
Transfer characteristics : BT.709
Matrix coefficients : BT.709

NOAH 2021

Audio
ID : 2
Format : AAC LC
Format/Info : Advanced Audio
Codec ID : A_AAC-2
Duration : 2 h 53 min
Bit rate : 192 kb/s
Channel(s) : 2 channels
Channel layout : L R
Sampling rate : 48.0 kHz
Frame rate : 46.875 FPS (1024 SPF)
Compression mode : Lossy
Stream size : 235 MiB (7%)
Default : Yes
Forced : No

Complete name : NOAH.2021.08.05.Departure.2021.Day.1.JAPANESE.1080p.WEB.h264-LATE.mkv
Format : Matroska
Format version : Version 4
File size : 7.38 GiB
Duration : 2 h 53 min
Overall bit rate mode : Variable
Overall bit rate : 6 083 kb/s

NOAH 2021

Video
ID : 1
Format : AVC
Format/Info : Advanced Video
Duration : 2 h 53 min
Bit rate mode : Variable
Bit rate : 5 699 kb/s
Maximum bit rate : 18.0 Mb/s
Width : 1 920 pixels
Height : 1 080 pixels
Display aspect ratio : 16:9
Frame rate mode : Constant
Frame rate : 29.970 (30000/1001) FPS
Color space : YUV
Chroma subsampling : 4:2:0
Bit depth : 8 bits
Scan type : Progressive
Bits/(Pixel*Frame) : 0.092
Stream size : 6.92 GiB (94%)
Default : Yes
Forced : No
Color range : Limited
Color primaries : BT.709
Transfer characteristics : BT.709
Matrix coefficients : BT.709

Audio
ID : 2
Format : AAC LC
Codec ID : A_AAC-2
Duration : 2 h 53 min
Bit rate : 384 kb/s
Channel(s) : 2 channels
Channel layout : L R
Sampling rate : 48.0 kHz
Frame rate : 46.875 FPS (1024 SPF)
Compression mode : Lossy
Stream size : 474 MiB (6%)
Default : Yes
Forced : No

NOAH 2021

Complete name : NOAH.2021.08.05.Departure.2021.Day.1.JAPANESE.WEB.h264-LATE.mkv
Format : Matroska
Format version : Version 4
File size : 1.71 GiB
Duration : 2 h 53 min
Overall bit rate mode : Variable
Overall bit rate : 1 407 kb/s

Video
ID : 1
Format : AVC
Format/Info : Advanced Video
Duration : 2 h 53 min
Bit rate mode : Variable
Bit rate : 1 279 kb/s
Maximum bit rate : 4 000 kb/s
Width : 960 pixels
Height : 540 pixels
Display aspect ratio : 16:9
Frame rate mode : Constant
Frame rate : 29.970 (30000/1001) FPS
Color space : YUV
Chroma subsampling : 4:2:0
Bit depth : 8 bits
Scan type : Progressive
Bits/(Pixel*Frame) : 0.082
Stream size : 1.55 GiB (91%)
Default : Yes
Forced : No
Color range : Limited
Color primaries : BT.709
Transfer characteristics : BT.709
Matrix coefficients : BT.709

NOAH 2021

Audio
ID : 2
Format : AAC LC
Codec ID : A_AAC-2
Duration : 2 h 53 min
Bit rate : 125 kb/s
Channel(s) : 2 channels
Channel layout : L R
Sampling rate : 48.0 kHz
Frame rate : 46.875 FPS (1024 SPF)
Compression mode : Lossy
Stream size : 156 MiB (9%)
Default : Yes
Forced : No

NOAH 2021

 

[collapse]

 

 

https://dx-tv.com/

You May Also Like

Leave a Reply

Your email address will not be published. Required fields are marked *

This site uses Akismet to reduce spam. Learn how your comment data is processed.