Njpw Wrestle Kingdom 15 Online 04 Jan 2021 Japan

Njpw Wrestle Kingdom 15 Online 04 Jan 2021 Japan DX-TV

Njpw Wrestle Kingdom 15

 Watch Njpw Wrestle Kingdom 15

Wrestle Kingdom 15

Download Links with premium High Speed   

 

 

nitroflare.com

http://shrt10.com/exWYPLn

 

 

rapidgator.net

http://shrt10.com/OVix7

 

 

uploaded.net

http://shrt10.com/Gpeqh0

 

 

uploadgig.com

http://shrt10.com/6J31hKY

 

Watch Wrestle Kingdom 15

 

Server 1

 

 

 

 

Njpw Wrestle Kingdom 15

 

 

 

 

Server-2

 

 

watch now

 

 

Uploaded By Site DX-TV.com

 

 

Complete name : By DX-TV,com- Njpw Wrestle Kingdom 15 04 Jan 2021 in Tokyo Dome – Japan.mp4
Format : MPEG-4
Format profile : Base Media
Codec ID : isom
File size : 4.20 GiB
Duration : 5 h 10 min
Overall bit rate : 1 935 kb/s
Writing application : Lavf58.25.100

Njpw Wrestle Kingdom 

Video
ID : 1
Format : AVC
Format/Info : Advanced Video
Bit rate : 1 824 kb/s
Width : 960 pixels
Height : 540 pixels
Display aspect ratio : 16:9
Frame rate mode : Variable
Frame rate : 30.000 FPS
Minimum frame rate : 14.925 FPS
Maximum frame rate : 90 000.000 FPS
Color space : YUV
Chroma subsampling : 4:2:0
Bit depth : 8 bits
Scan type : Progressive
Bits/(Pixel*Frame) : 0.117
Stream size : 3.96 GiB (94%)
Color range : Limited
Color primaries : BT.601 PAL
Transfer characteristics : BT.601
Matrix coefficients : BT.470 System B/G
Codec configuration box : avcC

Njpw Wrestle Kingdom 

Audio
ID : 2
Format : AAC LC
Format/Info : Advanced Audio Codec Low Complexity
Codec ID : mp4a-40-2
Duration : 5 h 10 min
Bit rate mode : Constant
Bit rate : 100.0 kb/s
Channel(s) : 2 channels
Channel layout : L R
Sampling rate : 44.1 kHz
Frame rate : 43.066 FPS (1024 SPF)
Compression mode : Lossy
Stream size : 222 MiB (5%)
Default : Yes
Alternate group : 1

Wrestle Kingdom 15

Audio
ID : 2
Format : AAC LC
Format/Info : Advanced Audio Codec Low Complexity
Codec ID : mp4a-40-2
Duration : 5 h 10 min
Bit rate mode : Constant
Bit rate : 100.0 kb/s
Channel(s) : 2 channels
Channel layout : L R
Sampling rate : 44.1 kHz
Frame rate : 43.066 FPS (1024 SPF)
Compression mode : Lossy
Stream size : 222 MiB (5%)
Default : Yes
Alternate group : 1

Wrestle Kingdom 15

Frame rate : 43.066 FPS (1024 SPF)
Compression mode : Lossy
Stream size : 222 MiB (5%)
Default : Yes
Alternate group : 1

 

 

https://dx-tv.com/

Leave a Reply

Your email address will not be published. Required fields are marked *

This site uses Akismet to reduce spam. Learn how your comment data is processed.