NJPW Summer Struggle Day 6 2021 07 30 Online Free

NJPW Summer Struggle Day 6 2021 07 30 Online Free Replay DX-TV

NJPW Summer Struggle

 NJPW Summer Struggle

 

 

 

Download Links with premium High Speed


 

Dopapk

 

 

Show Links

 

http://shrt10.com/ynkun

 

[collapse]

 

 

Nitroflare

 

 

Show Links

 

http://shrt10.com/1FHOUIQEL

 

[collapse]

 

 

Rapidgator

 

 

Show Links

 

http://shrt10.com/2bEqXH

 

[collapse]

 

 

Uploaded

 

 

Show Links

 

http://shrt10.com/2rfj6

 

[collapse]

 

 

Watch online

 

Server 1

 

 

 

 

NJPW Summer Struggle

 

 

 

 

Server-2

 

 

 

 

watch now

 

 

 

|Server-3

 

 

 

 

watch now

 

 

Uploaded By Site DX-TV.com

 

 

Show Info This Show

NJPW Summer Struggle

 

Complete name : NJPW.2021.07.30.Summer.Struggle.Day.6.JAPANESE.WEB.h264-LATE.mkv
Format : Matroska
Format version : Version 4
File size : 1.83 GiB
Duration : 2 h 15 min
Overall bit rate : 1 936 kb/s

Video
ID : 1
Format : AVC
Format/Info : Advanced Video
Duration : 2 h 15 min
Bit rate : 1 835 kb/s
Width : 960 pixels
Height : 540 pixels
Display aspect ratio : 16:9
Frame rate mode : Constant
Frame rate : 30.000 FPS
Color space : YUV
Chroma subsampling : 4:2:0
Bit depth : 8 bits
Scan type : Progressive
Bits/(Pixel*Frame) : 0.118
Stream size : 1.73 GiB (95%)
Default : Yes
Forced : No
Color range : Limited
Color primaries : BT.601 PAL
Transfer characteristics : BT.601
Matrix coefficients : BT.470 

NJPW Summer Struggle

Audio
ID : 2
Format : AAC LC
Codec ID : A_AAC-2
Duration : 2 h 15 min
Bit rate : 99.1 kb/s
Channel(s) : 2 channels
Channel layout : L R
Sampling rate : 44.1 kHz
Frame rate : 43.066 FPS (1024 SPF)
Compression mode : Lossy
Stream size : 95.7 MiB (5%)
Language : English
Default : Yes
Forced : No

NJPW Summer Struggle

Complete name : NJPW.2021.07.30.Summer.Struggle.Day.6.JAPANESE.WEB.h264-LATE.mkv
Format : Matroska
Format version : Version 4
File size : 1.83 GiB
Duration : 2 h 15 min
Overall bit rate : 1 936 kb/s

Video
ID : 1
Format : AVC
Format/Info : Advanced Video
Duration : 2 h 15 min
Bit rate : 1 835 kb/s
Width : 960 pixels
Height : 540 pixels
Display aspect ratio : 16:9
Frame rate mode : Constant
Frame rate : 30.000 FPS
Color space : YUV
Chroma subsampling : 4:2:0
Bit depth : 8 bits
Scan type : Progressive
Bits/(Pixel*Frame) : 0.118
Stream size : 1.73 GiB (95%)
Default : Yes
Forced : No
Color range : Limited
Color primaries : BT.601 PAL
Transfer characteristics : BT.601
Matrix coefficients : BT.470 

NJPW Summer Struggle

Audio
ID : 2
Format : AAC LC
Codec ID : A_AAC-2
Duration : 2 h 15 min
Bit rate : 99.1 kb/s
Channel(s) : 2 channels
Channel layout : L R
Sampling rate : 44.1 kHz
Frame rate : 43.066 FPS (1024 SPF)
Compression mode : Lossy
Stream size : 95.7 MiB (5%)
Language : English
Default : Yes
Forced : No

NJPW Summer Struggle

Complete name : NJPW.2021.07.30.Summer.Struggle.Day.6.JAPANESE.WEB.h264-LATE.mkv
Format : Matroska
Format version : Version 4
File size : 1.83 GiB
Duration : 2 h 15 min
Overall bit rate : 1 936 kb/s

Video
ID : 1
Format : AVC
Format/Info : Advanced Video
Duration : 2 h 15 min
Bit rate : 1 835 kb/s
Width : 960 pixels
Height : 540 pixels
Display aspect ratio : 16:9
Frame rate mode : Constant
Frame rate : 30.000 FPS
Color space : YUV
Chroma subsampling : 4:2:0
Bit depth : 8 bits
Scan type : Progressive
Bits/(Pixel*Frame) : 0.118
Stream size : 1.73 GiB (95%)
Default : Yes
Forced : No
Color range : Limited
Color primaries : BT.601 PAL
Transfer characteristics : BT.601
Matrix coefficients : BT.470 

NJPW Summer Struggle

Audio
ID : 2
Format : AAC LC
Codec ID : A_AAC-2
Duration : 2 h 15 min
Bit rate : 99.1 kb/s
Channel(s) : 2 channels
Channel layout : L R
Sampling rate : 44.1 kHz
Frame rate : 43.066 FPS (1024 SPF)
Compression mode : Lossy
Stream size : 95.7 MiB (5%)
Language : English
Default : Yes
Forced : No

NJPW Summer Struggle

Complete name : NJPW.2021.07.30.Summer.Struggle.Day.6.JAPANESE.WEB.h264-LATE.mkv
Format : Matroska
Format version : Version 4
File size : 1.83 GiB
Duration : 2 h 15 min
Overall bit rate : 1 936 kb/s

Video
ID : 1
Format : AVC
Format/Info : Advanced Video
Duration : 2 h 15 min
Bit rate : 1 835 kb/s
Width : 960 pixels
Height : 540 pixels
Display aspect ratio : 16:9
Frame rate mode : Constant
Frame rate : 30.000 FPS
Color space : YUV
Chroma subsampling : 4:2:0
Bit depth : 8 bits
Scan type : Progressive
Bits/(Pixel*Frame) : 0.118
Stream size : 1.73 GiB (95%)
Default : Yes
Forced : No
Color range : Limited
Color primaries : BT.601 PAL
Transfer characteristics : BT.601
Matrix coefficients : BT.470 

NJPW Summer Struggle

Audio
ID : 2
Format : AAC LC
Codec ID : A_AAC-2
Duration : 2 h 15 min
Bit rate : 99.1 kb/s
Channel(s) : 2 channels
Channel layout : L R
Sampling rate : 44.1 kHz
Frame rate : 43.066 FPS (1024 SPF)
Compression mode : Lossy
Stream size : 95.7 MiB (5%)
Language : English
Default : Yes
Forced : No

NJPW Summer Struggle

Complete name : NJPW.2021.07.30.Summer.Struggle.Day.6.JAPANESE.WEB.h264-LATE.mkv
Format : Matroska
Format version : Version 4
File size : 1.83 GiB
Duration : 2 h 15 min
Overall bit rate : 1 936 kb/s

Video
ID : 1
Format : AVC
Format/Info : Advanced Video
Duration : 2 h 15 min
Bit rate : 1 835 kb/s
Width : 960 pixels
Height : 540 pixels
Display aspect ratio : 16:9
Frame rate mode : Constant
Frame rate : 30.000 FPS
Color space : YUV
Chroma subsampling : 4:2:0
Bit depth : 8 bits
Scan type : Progressive
Bits/(Pixel*Frame) : 0.118
Stream size : 1.73 GiB (95%)
Default : Yes
Forced : No
Color range : Limited
Color primaries : BT.601 PAL
Transfer characteristics : BT.601
Matrix coefficients : BT.470 

NJPW Summer Struggle

Audio
ID : 2
Format : AAC LC
Codec ID : A_AAC-2
Duration : 2 h 15 min
Bit rate : 99.1 kb/s
Channel(s) : 2 channels
Channel layout : L R
Sampling rate : 44.1 kHz
Frame rate : 43.066 FPS (1024 SPF)
Compression mode : Lossy
Stream size : 95.7 MiB (5%)
Language : English
Default : Yes
Forced : No

NJPW Summer Struggle

Complete name : NJPW.2021.07.30.Summer.Struggle.Day.6.JAPANESE.WEB.h264-LATE.mkv
Format : Matroska
Format version : Version 4
File size : 1.83 GiB
Duration : 2 h 15 min
Overall bit rate : 1 936 kb/s

Video
ID : 1
Format : AVC
Format/Info : Advanced Video
Duration : 2 h 15 min
Bit rate : 1 835 kb/s
Width : 960 pixels
Height : 540 pixels
Display aspect ratio : 16:9
Frame rate mode : Constant
Frame rate : 30.000 FPS
Color space : YUV
Chroma subsampling : 4:2:0
Bit depth : 8 bits
Scan type : Progressive
Bits/(Pixel*Frame) : 0.118
Stream size : 1.73 GiB (95%)
Default : Yes
Forced : No
Color range : Limited
Color primaries : BT.601 PAL
Transfer characteristics : BT.601
Matrix coefficients : BT.470 

NJPW Summer Struggle

Audio
ID : 2
Format : AAC LC
Codec ID : A_AAC-2
Duration : 2 h 15 min
Bit rate : 99.1 kb/s
Channel(s) : 2 channels
Channel layout : L R
Sampling rate : 44.1 kHz
Frame rate : 43.066 FPS (1024 SPF)
Compression mode : Lossy
Stream size : 95.7 MiB (5%)
Language : English
Default : Yes
Forced : No

NJPW Summer Struggle

Complete name : NJPW.2021.07.30.Summer.Struggle.Day.6.JAPANESE.WEB.h264-LATE.mkv
Format : Matroska
Format version : Version 4
File size : 1.83 GiB
Duration : 2 h 15 min
Overall bit rate : 1 936 kb/s

Video
ID : 1
Format : AVC
Format/Info : Advanced Video
Duration : 2 h 15 min
Bit rate : 1 835 kb/s
Width : 960 pixels
Height : 540 pixels
Display aspect ratio : 16:9
Frame rate mode : Constant
Frame rate : 30.000 FPS
Color space : YUV
Chroma subsampling : 4:2:0
Bit depth : 8 bits
Scan type : Progressive
Bits/(Pixel*Frame) : 0.118
Stream size : 1.73 GiB (95%)
Default : Yes
Forced : No
Color range : Limited
Color primaries : BT.601 PAL
Transfer characteristics : BT.601
Matrix coefficients : BT.470 

NJPW Summer Struggle

Audio
ID : 2
Format : AAC LC
Codec ID : A_AAC-2
Duration : 2 h 15 min
Bit rate : 99.1 kb/s
Channel(s) : 2 channels
Channel layout : L R
Sampling rate : 44.1 kHz
Frame rate : 43.066 FPS (1024 SPF)
Compression mode : Lossy
Stream size : 95.7 MiB (5%)
Language : English
Default : Yes
Forced : No

NJPW Summer Struggle

Complete name : NJPW.2021.07.30.Summer.Struggle.Day.6.JAPANESE.WEB.h264-LATE.mkv
Format : Matroska
Format version : Version 4
File size : 1.83 GiB
Duration : 2 h 15 min
Overall bit rate : 1 936 kb/s

Video
ID : 1
Format : AVC
Format/Info : Advanced Video
Duration : 2 h 15 min
Bit rate : 1 835 kb/s
Width : 960 pixels
Height : 540 pixels
Display aspect ratio : 16:9
Frame rate mode : Constant
Frame rate : 30.000 FPS
Color space : YUV
Chroma subsampling : 4:2:0
Bit depth : 8 bits
Scan type : Progressive
Bits/(Pixel*Frame) : 0.118
Stream size : 1.73 GiB (95%)
Default : Yes
Forced : No
Color range : Limited
Color primaries : BT.601 PAL
Transfer characteristics : BT.601
Matrix coefficients : BT.470 

NJPW Summer Struggle

Audio
ID : 2
Format : AAC LC
Codec ID : A_AAC-2
Duration : 2 h 15 min
Bit rate : 99.1 kb/s
Channel(s) : 2 channels
Channel layout : L R
Sampling rate : 44.1 kHz
Frame rate : 43.066 FPS (1024 SPF)
Compression mode : Lossy
Stream size : 95.7 MiB (5%)
Language : English
Default : Yes
Forced : No

NJPW Summer Struggle

Complete name : NJPW.2021.07.30.Summer.Struggle.Day.6.JAPANESE.WEB.h264-LATE.mkv
Format : Matroska
Format version : Version 4
File size : 1.83 GiB
Duration : 2 h 15 min
Overall bit rate : 1 936 kb/s

Video
ID : 1
Format : AVC
Format/Info : Advanced Video
Duration : 2 h 15 min
Bit rate : 1 835 kb/s
Width : 960 pixels
Height : 540 pixels
Display aspect ratio : 16:9
Frame rate mode : Constant
Frame rate : 30.000 FPS
Color space : YUV
Chroma subsampling : 4:2:0
Bit depth : 8 bits
Scan type : Progressive
Bits/(Pixel*Frame) : 0.118
Stream size : 1.73 GiB (95%)
Default : Yes
Forced : No
Color range : Limited
Color primaries : BT.601 PAL
Transfer characteristics : BT.601
Matrix coefficients : BT.470 

NJPW Summer Struggle

Audio
ID : 2
Format : AAC LC
Codec ID : A_AAC-2
Duration : 2 h 15 min
Bit rate : 99.1 kb/s
Channel(s) : 2 channels
Channel layout : L R
Sampling rate : 44.1 kHz
Frame rate : 43.066 FPS (1024 SPF)
Compression mode : Lossy
Stream size : 95.7 MiB (5%)
Language : English
Default : Yes
Forced : No

NJPW Summer Struggle

Complete name : NJPW.2021.07.30.Summer.Struggle.Day.6.JAPANESE.WEB.h264-LATE.mkv
Format : Matroska
Format version : Version 4
File size : 1.83 GiB
Duration : 2 h 15 min
Overall bit rate : 1 936 kb/s

Video
ID : 1
Format : AVC
Format/Info : Advanced Video
Duration : 2 h 15 min
Bit rate : 1 835 kb/s
Width : 960 pixels
Height : 540 pixels
Display aspect ratio : 16:9
Frame rate mode : Constant
Frame rate : 30.000 FPS
Color space : YUV
Chroma subsampling : 4:2:0
Bit depth : 8 bits
Scan type : Progressive
Bits/(Pixel*Frame) : 0.118
Stream size : 1.73 GiB (95%)
Default : Yes
Forced : No
Color range : Limited
Color primaries : BT.601 PAL
Transfer characteristics : BT.601
Matrix coefficients : BT.470 

NJPW Summer Struggle

Audio
ID : 2
Format : AAC LC
Codec ID : A_AAC-2
Duration : 2 h 15 min
Bit rate : 99.1 kb/s
Channel(s) : 2 channels
Channel layout : L R
Sampling rate : 44.1 kHz
Frame rate : 43.066 FPS (1024 SPF)
Compression mode : Lossy
Stream size : 95.7 MiB (5%)
Language : English
Default : Yes
Forced : No

NJPW Summer Struggle

Complete name : NJPW.2021.07.30.Summer.Struggle.Day.6.JAPANESE.WEB.h264-LATE.mkv
Format : Matroska
Format version : Version 4
File size : 1.83 GiB
Duration : 2 h 15 min
Overall bit rate : 1 936 kb/s

Video
ID : 1
Format : AVC
Format/Info : Advanced Video
Duration : 2 h 15 min
Bit rate : 1 835 kb/s
Width : 960 pixels
Height : 540 pixels
Display aspect ratio : 16:9
Frame rate mode : Constant
Frame rate : 30.000 FPS
Color space : YUV
Chroma subsampling : 4:2:0
Bit depth : 8 bits
Scan type : Progressive
Bits/(Pixel*Frame) : 0.118
Stream size : 1.73 GiB (95%)
Default : Yes
Forced : No
Color range : Limited
Color primaries : BT.601 PAL
Transfer characteristics : BT.601
Matrix coefficients : BT.470 

NJPW Summer Struggle

Audio
ID : 2
Format : AAC LC
Codec ID : A_AAC-2
Duration : 2 h 15 min
Bit rate : 99.1 kb/s
Channel(s) : 2 channels
Channel layout : L R
Sampling rate : 44.1 kHz
Frame rate : 43.066 FPS (1024 SPF)
Compression mode : Lossy
Stream size : 95.7 MiB (5%)
Language : English
Default : Yes
Forced : No

NJPW Summer Struggle

Complete name : NJPW.2021.07.30.Summer.Struggle.Day.6.JAPANESE.WEB.h264-LATE.mkv
Format : Matroska
Format version : Version 4
File size : 1.83 GiB
Duration : 2 h 15 min
Overall bit rate : 1 936 kb/s

Video
ID : 1
Format : AVC
Format/Info : Advanced Video
Duration : 2 h 15 min
Bit rate : 1 835 kb/s
Width : 960 pixels
Height : 540 pixels
Display aspect ratio : 16:9
Frame rate mode : Constant
Frame rate : 30.000 FPS
Color space : YUV
Chroma subsampling : 4:2:0
Bit depth : 8 bits
Scan type : Progressive
Bits/(Pixel*Frame) : 0.118
Stream size : 1.73 GiB (95%)
Default : Yes
Forced : No
Color range : Limited
Color primaries : BT.601 PAL
Transfer characteristics : BT.601
Matrix coefficients : BT.470 

NJPW Summer Struggle

Audio
ID : 2
Format : AAC LC
Codec ID : A_AAC-2
Duration : 2 h 15 min
Bit rate : 99.1 kb/s
Channel(s) : 2 channels
Channel layout : L R
Sampling rate : 44.1 kHz
Frame rate : 43.066 FPS (1024 SPF)
Compression mode : Lossy
Stream size : 95.7 MiB (5%)
Language : English
Default : Yes
Forced : No

NJPW Summer Struggle

Complete name : NJPW.2021.07.30.Summer.Struggle.Day.6.JAPANESE.WEB.h264-LATE.mkv
Format : Matroska
Format version : Version 4
File size : 1.83 GiB
Duration : 2 h 15 min
Overall bit rate : 1 936 kb/s

Video
ID : 1
Format : AVC
Format/Info : Advanced Video
Duration : 2 h 15 min
Bit rate : 1 835 kb/s
Width : 960 pixels
Height : 540 pixels
Display aspect ratio : 16:9
Frame rate mode : Constant
Frame rate : 30.000 FPS
Color space : YUV
Chroma subsampling : 4:2:0
Bit depth : 8 bits
Scan type : Progressive
Bits/(Pixel*Frame) : 0.118
Stream size : 1.73 GiB (95%)
Default : Yes
Forced : No
Color range : Limited
Color primaries : BT.601 PAL
Transfer characteristics : BT.601
Matrix coefficients : BT.470 

NJPW Summer Struggle

Audio
ID : 2
Format : AAC LC
Codec ID : A_AAC-2
Duration : 2 h 15 min
Bit rate : 99.1 kb/s
Channel(s) : 2 channels
Channel layout : L R
Sampling rate : 44.1 kHz
Frame rate : 43.066 FPS (1024 SPF)
Compression mode : Lossy
Stream size : 95.7 MiB (5%)
Language : English
Default : Yes
Forced : No

NJPW Summer Struggle

Complete name : NJPW.2021.07.30.Summer.Struggle.Day.6.JAPANESE.WEB.h264-LATE.mkv
Format : Matroska
Format version : Version 4
File size : 1.83 GiB
Duration : 2 h 15 min
Overall bit rate : 1 936 kb/s

Video
ID : 1
Format : AVC
Format/Info : Advanced Video
Duration : 2 h 15 min
Bit rate : 1 835 kb/s
Width : 960 pixels
Height : 540 pixels
Display aspect ratio : 16:9
Frame rate mode : Constant
Frame rate : 30.000 FPS
Color space : YUV
Chroma subsampling : 4:2:0
Bit depth : 8 bits
Scan type : Progressive
Bits/(Pixel*Frame) : 0.118
Stream size : 1.73 GiB (95%)
Default : Yes
Forced : No
Color range : Limited
Color primaries : BT.601 PAL
Transfer characteristics : BT.601
Matrix coefficients : BT.470 

NJPW Summer Struggle

Audio
ID : 2
Format : AAC LC
Codec ID : A_AAC-2
Duration : 2 h 15 min
Bit rate : 99.1 kb/s
Channel(s) : 2 channels
Channel layout : L R
Sampling rate : 44.1 kHz
Frame rate : 43.066 FPS (1024 SPF)
Compression mode : Lossy
Stream size : 95.7 MiB (5%)
Language : English
Default : Yes
Forced : No

NJPW Summer Struggle

Complete name : NJPW.2021.07.30.Summer.Struggle.Day.6.JAPANESE.WEB.h264-LATE.mkv
Format : Matroska
Format version : Version 4
File size : 1.83 GiB
Duration : 2 h 15 min
Overall bit rate : 1 936 kb/s

Video
ID : 1
Format : AVC
Format/Info : Advanced Video
Duration : 2 h 15 min
Bit rate : 1 835 kb/s
Width : 960 pixels
Height : 540 pixels
Display aspect ratio : 16:9
Frame rate mode : Constant
Frame rate : 30.000 FPS
Color space : YUV
Chroma subsampling : 4:2:0
Bit depth : 8 bits
Scan type : Progressive
Bits/(Pixel*Frame) : 0.118
Stream size : 1.73 GiB (95%)
Default : Yes
Forced : No
Color range : Limited
Color primaries : BT.601 PAL
Transfer characteristics : BT.601
Matrix coefficients : BT.470 

NJPW Summer Struggle

Audio
ID : 2
Format : AAC LC
Codec ID : A_AAC-2
Duration : 2 h 15 min
Bit rate : 99.1 kb/s
Channel(s) : 2 channels
Channel layout : L R
Sampling rate : 44.1 kHz
Frame rate : 43.066 FPS (1024 SPF)
Compression mode : Lossy
Stream size : 95.7 MiB (5%)
Language : English
Default : Yes
Forced : No

NJPW Summer Struggle

Complete name : NJPW.2021.07.30.Summer.Struggle.Day.6.JAPANESE.WEB.h264-LATE.mkv
Format : Matroska
Format version : Version 4
File size : 1.83 GiB
Duration : 2 h 15 min
Overall bit rate : 1 936 kb/s

Video
ID : 1
Format : AVC
Format/Info : Advanced Video
Duration : 2 h 15 min
Bit rate : 1 835 kb/s
Width : 960 pixels
Height : 540 pixels
Display aspect ratio : 16:9
Frame rate mode : Constant
Frame rate : 30.000 FPS
Color space : YUV
Chroma subsampling : 4:2:0
Bit depth : 8 bits
Scan type : Progressive
Bits/(Pixel*Frame) : 0.118
Stream size : 1.73 GiB (95%)
Default : Yes
Forced : No
Color range : Limited
Color primaries : BT.601 PAL
Transfer characteristics : BT.601
Matrix coefficients : BT.470 

NJPW Summer Struggle

Audio
ID : 2
Format : AAC LC
Codec ID : A_AAC-2
Duration : 2 h 15 min
Bit rate : 99.1 kb/s
Channel(s) : 2 channels
Channel layout : L R
Sampling rate : 44.1 kHz
Frame rate : 43.066 FPS (1024 SPF)
Compression mode : Lossy
Stream size : 95.7 MiB (5%)
Language : English
Default : Yes
Forced : No

NJPW Summer Struggle

Complete name : NJPW.2021.07.30.Summer.Struggle.Day.6.JAPANESE.WEB.h264-LATE.mkv
Format : Matroska
Format version : Version 4
File size : 1.83 GiB
Duration : 2 h 15 min
Overall bit rate : 1 936 kb/s

Video
ID : 1
Format : AVC
Format/Info : Advanced Video
Duration : 2 h 15 min
Bit rate : 1 835 kb/s
Width : 960 pixels
Height : 540 pixels
Display aspect ratio : 16:9
Frame rate mode : Constant
Frame rate : 30.000 FPS
Color space : YUV
Chroma subsampling : 4:2:0
Bit depth : 8 bits
Scan type : Progressive
Bits/(Pixel*Frame) : 0.118
Stream size : 1.73 GiB (95%)
Default : Yes
Forced : No
Color range : Limited
Color primaries : BT.601 PAL
Transfer characteristics : BT.601
Matrix coefficients : BT.470 

NJPW Summer Struggle

Audio
ID : 2
Format : AAC LC
Codec ID : A_AAC-2
Duration : 2 h 15 min
Bit rate : 99.1 kb/s
Channel(s) : 2 channels
Channel layout : L R
Sampling rate : 44.1 kHz
Frame rate : 43.066 FPS (1024 SPF)
Compression mode : Lossy
Stream size : 95.7 MiB (5%)
Language : English
Default : Yes
Forced : No

NJPW Summer Struggle

Complete name : NJPW.2021.07.30.Summer.Struggle.Day.6.JAPANESE.WEB.h264-LATE.mkv
Format : Matroska
Format version : Version 4
File size : 1.83 GiB
Duration : 2 h 15 min
Overall bit rate : 1 936 kb/s

Video
ID : 1
Format : AVC
Format/Info : Advanced Video
Duration : 2 h 15 min
Bit rate : 1 835 kb/s
Width : 960 pixels
Height : 540 pixels
Display aspect ratio : 16:9
Frame rate mode : Constant
Frame rate : 30.000 FPS
Color space : YUV
Chroma subsampling : 4:2:0
Bit depth : 8 bits
Scan type : Progressive
Bits/(Pixel*Frame) : 0.118
Stream size : 1.73 GiB (95%)
Default : Yes
Forced : No
Color range : Limited
Color primaries : BT.601 PAL
Transfer characteristics : BT.601
Matrix coefficients : BT.470 

NJPW Summer Struggle

Audio
ID : 2
Format : AAC LC
Codec ID : A_AAC-2
Duration : 2 h 15 min
Bit rate : 99.1 kb/s
Channel(s) : 2 channels
Channel layout : L R
Sampling rate : 44.1 kHz
Frame rate : 43.066 FPS (1024 SPF)
Compression mode : Lossy
Stream size : 95.7 MiB (5%)
Language : English
Default : Yes
Forced : No

NJPW Summer Struggle

Complete name : NJPW.2021.07.30.Summer.Struggle.Day.6.JAPANESE.WEB.h264-LATE.mkv
Format : Matroska
Format version : Version 4
File size : 1.83 GiB
Duration : 2 h 15 min
Overall bit rate : 1 936 kb/s

Video
ID : 1
Format : AVC
Format/Info : Advanced Video
Duration : 2 h 15 min
Bit rate : 1 835 kb/s
Width : 960 pixels
Height : 540 pixels
Display aspect ratio : 16:9
Frame rate mode : Constant
Frame rate : 30.000 FPS
Color space : YUV
Chroma subsampling : 4:2:0
Bit depth : 8 bits
Scan type : Progressive
Bits/(Pixel*Frame) : 0.118
Stream size : 1.73 GiB (95%)
Default : Yes
Forced : No
Color range : Limited
Color primaries : BT.601 PAL
Transfer characteristics : BT.601
Matrix coefficients : BT.470 

NJPW Summer Struggle

Audio
ID : 2
Format : AAC LC
Codec ID : A_AAC-2
Duration : 2 h 15 min
Bit rate : 99.1 kb/s
Channel(s) : 2 channels
Channel layout : L R
Sampling rate : 44.1 kHz
Frame rate : 43.066 FPS (1024 SPF)
Compression mode : Lossy
Stream size : 95.7 MiB (5%)
Language : English
Default : Yes
Forced : No

NJPW Summer Struggle

Complete name : NJPW.2021.07.30.Summer.Struggle.Day.6.JAPANESE.WEB.h264-LATE.mkv
Format : Matroska
Format version : Version 4
File size : 1.83 GiB
Duration : 2 h 15 min
Overall bit rate : 1 936 kb/s

Video
ID : 1
Format : AVC
Format/Info : Advanced Video
Duration : 2 h 15 min
Bit rate : 1 835 kb/s
Width : 960 pixels
Height : 540 pixels
Display aspect ratio : 16:9
Frame rate mode : Constant
Frame rate : 30.000 FPS
Color space : YUV
Chroma subsampling : 4:2:0
Bit depth : 8 bits
Scan type : Progressive
Bits/(Pixel*Frame) : 0.118
Stream size : 1.73 GiB (95%)
Default : Yes
Forced : No
Color range : Limited
Color primaries : BT.601 PAL
Transfer characteristics : BT.601
Matrix coefficients : BT.470 

NJPW Summer Struggle

Audio
ID : 2
Format : AAC LC
Codec ID : A_AAC-2
Duration : 2 h 15 min
Bit rate : 99.1 kb/s
Channel(s) : 2 channels
Channel layout : L R
Sampling rate : 44.1 kHz
Frame rate : 43.066 FPS (1024 SPF)
Compression mode : Lossy
Stream size : 95.7 MiB (5%)
Language : English
Default : Yes
Forced : No

NJPW Summer Struggle

Complete name : NJPW.2021.07.30.Summer.Struggle.Day.6.JAPANESE.WEB.h264-LATE.mkv
Format : Matroska
Format version : Version 4
File size : 1.83 GiB
Duration : 2 h 15 min
Overall bit rate : 1 936 kb/s

Video
ID : 1
Format : AVC
Format/Info : Advanced Video
Duration : 2 h 15 min
Bit rate : 1 835 kb/s
Width : 960 pixels
Height : 540 pixels
Display aspect ratio : 16:9
Frame rate mode : Constant
Frame rate : 30.000 FPS
Color space : YUV
Chroma subsampling : 4:2:0
Bit depth : 8 bits
Scan type : Progressive
Bits/(Pixel*Frame) : 0.118
Stream size : 1.73 GiB (95%)
Default : Yes
Forced : No
Color range : Limited
Color primaries : BT.601 PAL
Transfer characteristics : BT.601
Matrix coefficients : BT.470 

NJPW Summer Struggle

Audio
ID : 2
Format : AAC LC
Codec ID : A_AAC-2
Duration : 2 h 15 min
Bit rate : 99.1 kb/s
Channel(s) : 2 channels
Channel layout : L R
Sampling rate : 44.1 kHz
Frame rate : 43.066 FPS (1024 SPF)
Compression mode : Lossy
Stream size : 95.7 MiB (5%)
Language : English
Default : Yes
Forced : No

NJPW Summer Struggle

Complete name : NJPW.2021.07.30.Summer.Struggle.Day.6.JAPANESE.WEB.h264-LATE.mkv
Format : Matroska
Format version : Version 4
File size : 1.83 GiB
Duration : 2 h 15 min
Overall bit rate : 1 936 kb/s

Video
ID : 1
Format : AVC
Format/Info : Advanced Video
Duration : 2 h 15 min
Bit rate : 1 835 kb/s
Width : 960 pixels
Height : 540 pixels
Display aspect ratio : 16:9
Frame rate mode : Constant
Frame rate : 30.000 FPS
Color space : YUV
Chroma subsampling : 4:2:0
Bit depth : 8 bits
Scan type : Progressive
Bits/(Pixel*Frame) : 0.118
Stream size : 1.73 GiB (95%)
Default : Yes
Forced : No
Color range : Limited
Color primaries : BT.601 PAL
Transfer characteristics : BT.601
Matrix coefficients : BT.470 

NJPW Summer Struggle

Audio
ID : 2
Format : AAC LC
Codec ID : A_AAC-2
Duration : 2 h 15 min
Bit rate : 99.1 kb/s
Channel(s) : 2 channels
Channel layout : L R
Sampling rate : 44.1 kHz
Frame rate : 43.066 FPS (1024 SPF)
Compression mode : Lossy
Stream size : 95.7 MiB (5%)
Language : English
Default : Yes
Forced : No

NJPW Summer Struggle

Complete name : NJPW.2021.07.30.Summer.Struggle.Day.6.JAPANESE.WEB.h264-LATE.mkv
Format : Matroska
Format version : Version 4
File size : 1.83 GiB
Duration : 2 h 15 min
Overall bit rate : 1 936 kb/s

Video
ID : 1
Format : AVC
Format/Info : Advanced Video
Duration : 2 h 15 min
Bit rate : 1 835 kb/s
Width : 960 pixels
Height : 540 pixels
Display aspect ratio : 16:9
Frame rate mode : Constant
Frame rate : 30.000 FPS
Color space : YUV
Chroma subsampling : 4:2:0
Bit depth : 8 bits
Scan type : Progressive
Bits/(Pixel*Frame) : 0.118
Stream size : 1.73 GiB (95%)
Default : Yes
Forced : No
Color range : Limited
Color primaries : BT.601 PAL
Transfer characteristics : BT.601
Matrix coefficients : BT.470 

NJPW Summer Struggle

Audio
ID : 2
Format : AAC LC
Codec ID : A_AAC-2
Duration : 2 h 15 min
Bit rate : 99.1 kb/s
Channel(s) : 2 channels
Channel layout : L R
Sampling rate : 44.1 kHz
Frame rate : 43.066 FPS (1024 SPF)
Compression mode : Lossy
Stream size : 95.7 MiB (5%)
Language : English
Default : Yes
Forced : No

NJPW Summer Struggle

Complete name : NJPW.2021.07.30.Summer.Struggle.Day.6.JAPANESE.WEB.h264-LATE.mkv
Format : Matroska
Format version : Version 4
File size : 1.83 GiB
Duration : 2 h 15 min
Overall bit rate : 1 936 kb/s

Video
ID : 1
Format : AVC
Format/Info : Advanced Video
Duration : 2 h 15 min
Bit rate : 1 835 kb/s
Width : 960 pixels
Height : 540 pixels
Display aspect ratio : 16:9
Frame rate mode : Constant
Frame rate : 30.000 FPS
Color space : YUV
Chroma subsampling : 4:2:0
Bit depth : 8 bits
Scan type : Progressive
Bits/(Pixel*Frame) : 0.118
Stream size : 1.73 GiB (95%)
Default : Yes
Forced : No
Color range : Limited
Color primaries : BT.601 PAL
Transfer characteristics : BT.601
Matrix coefficients : BT.470 

NJPW Summer Struggle

Audio
ID : 2
Format : AAC LC
Codec ID : A_AAC-2
Duration : 2 h 15 min
Bit rate : 99.1 kb/s
Channel(s) : 2 channels
Channel layout : L R
Sampling rate : 44.1 kHz
Frame rate : 43.066 FPS (1024 SPF)
Compression mode : Lossy
Stream size : 95.7 MiB (5%)
Language : English
Default : Yes
Forced : No

NJPW Summer Struggle

Complete name : NJPW.2021.07.30.Summer.Struggle.Day.6.JAPANESE.WEB.h264-LATE.mkv
Format : Matroska
Format version : Version 4
File size : 1.83 GiB
Duration : 2 h 15 min
Overall bit rate : 1 936 kb/s

Video
ID : 1
Format : AVC
Format/Info : Advanced Video
Duration : 2 h 15 min
Bit rate : 1 835 kb/s
Width : 960 pixels
Height : 540 pixels
Display aspect ratio : 16:9
Frame rate mode : Constant
Frame rate : 30.000 FPS
Color space : YUV
Chroma subsampling : 4:2:0
Bit depth : 8 bits
Scan type : Progressive
Bits/(Pixel*Frame) : 0.118
Stream size : 1.73 GiB (95%)
Default : Yes
Forced : No
Color range : Limited
Color primaries : BT.601 PAL
Transfer characteristics : BT.601
Matrix coefficients : BT.470 

NJPW Summer Struggle

Audio
ID : 2
Format : AAC LC
Codec ID : A_AAC-2
Duration : 2 h 15 min
Bit rate : 99.1 kb/s
Channel(s) : 2 channels
Channel layout : L R
Sampling rate : 44.1 kHz
Frame rate : 43.066 FPS (1024 SPF)
Compression mode : Lossy
Stream size : 95.7 MiB (5%)
Language : English
Default : Yes
Forced : No

NJPW Summer Struggle

 

[collapse]

 

 

https://dx-tv.com/

Leave a Reply

Your email address will not be published. Required fields are marked *

This site uses Akismet to reduce spam. Learn how your comment data is processed.