NJPW Summer Struggle Day 2 2021 Online Free

NJPW Summer Struggle Day 2 2021 07 23 in Osaka English/ Japanese Online Free Replay DX-TV

NJPW Summer Struggle

 NJPW Summer Struggle

 

 

 

Download Links with premium High Speed


Dopapk

 

 

Show Links

 

http://shrt10.com/k2o7s
http://shrt10.com/PrIQX

 

[collapse]

 

 

Nitroflare

 

 

Show Links

 

http://shrt10.com/21y6n6JK
http://shrt10.com/vN1Yx

 

[collapse]

 

 

Rapidgator

 

 

Show Links

 

http://shrt10.com/eh7qN6L
http://shrt10.com/1wxvt1N

 

[collapse]

 

 

Uploaded

 

 

Show Links

 

http://shrt10.com/MMrO65KQ
http://shrt10.com/udKXh

 

[collapse]

 

 

Watch online

 

Server 1

 

 

 

 

NJPW Summer Struggle

watch now

 

 

 

 

Server-2

 

 

 

 

watch now

watch now

 

 

 

|Server-3

 

 

 

 

NJPW Summer Struggle

watch now

 

 

Uploaded By Site DX-TV.com

 

 

Show Info This Show

 

NJPW Summer Struggle

Complete name : NJPW.2021.07.23.Summer.Struggle.in.Osaka.Day.2.ENGLISH.720p.WEB.h264-LATE.mkv
Format : Matroska
Format version : Version 4
File size : 2.52 GiB
Duration : 2 h 57 min
Overall bit rate : 2 032 kb/s

Video
ID : 1
Format : AVC
Format/Info : Advanced Video
Duration : 2 h 57 min
Bit rate : 1 904 kb/s
Width : 1 280 pixels
Height : 720 pixels
Display aspect ratio : 16:9
Frame rate mode : Constant
Frame rate : 30.000 FPS
Color space : YUV
Chroma subsampling : 4:2:0
Bit depth : 8 bits
Scan type : Progressive
Bits/(Pixel*Frame) : 0.069
Stream size : 2.36 GiB (94%)
Forced : No

NJPW Summer Struggle

Audio
ID : 2
Format : AAC LC
Format/Info : Advanced Audio
Codec ID : A_AAC-2
Duration : 2 h 57 min
Bit rate : 125 kb/s
Channel(s) : 2 channels
Channel layout : L R
Sampling rate : 44.1 kHz
Frame rate : 43.066 FPS (1024 SPF)
Compression mode : Lossy
Delay relative to video : -23 ms
Stream size : 159 MiB (6%)
Language : English
Default : Yes
Forced : No

Complete name : NJPW.2021.07.23.Summer.Struggle.in.Osaka.Day.2.JAPANESE.WEB.h264-LATE.mkv
Format : Matroska
Format version : Version 4
File size : 2.57 GiB
Duration : 3 h 9 min
Overall bit rate : 1 939 kb/s

NJPW Summer Struggle

Video
ID : 1
Format : AVC
Format/Info : Advanced Video
Duration : 3 h 9 min
Bit rate : 1 836 kb/s
Width : 960 pixels
Height : 540 pixels
Display aspect ratio : 16:9
Frame rate mode : Constant
Frame rate : 30.000 FPS
Color space : YUV
Chroma subsampling : 4:2:0
Bit depth : 8 bits
Scan type : Progressive
Bits/(Pixel*Frame) : 0.118
Stream size : 2.44 GiB (95%)
Default : Yes
Forced : No
Color range : Limited
Color primaries : BT.601 PAL
Transfer characteristics : BT.601
Matrix coefficients : BT.470

NJPW Summer Struggle

Audio
ID : 2
Format : AAC LC
Format/Info : Advanced Audio
Codec ID : A_AAC-2
Duration : 3 h 9 min
Bit rate : 99.6 kb/s
Channel(s) : 2 channels
Channel layout : L R
Sampling rate : 44.1 kHz
Frame rate : 43.066 FPS
Compression mode : Lossy
Stream size : 135 MiB (5%)
Language : English
Default : Yes
Forced : No

NJPW Summer Struggle

Complete name : NJPW.2021.07.23.Summer.Struggle.in.Osaka.Day.2.ENGLISH.720p.WEB.h264-LATE.mkv
Format : Matroska
Format version : Version 4
File size : 2.52 GiB
Duration : 2 h 57 min
Overall bit rate : 2 032 kb/s

Video
ID : 1
Format : AVC
Format/Info : Advanced Video
Duration : 2 h 57 min
Bit rate : 1 904 kb/s
Width : 1 280 pixels
Height : 720 pixels
Display aspect ratio : 16:9
Frame rate mode : Constant
Frame rate : 30.000 FPS
Color space : YUV
Chroma subsampling : 4:2:0
Bit depth : 8 bits
Scan type : Progressive
Bits/(Pixel*Frame) : 0.069
Stream size : 2.36 GiB (94%)
Forced : No

NJPW Summer Struggle

Audio
ID : 2
Format : AAC LC
Format/Info : Advanced Audio
Codec ID : A_AAC-2
Duration : 2 h 57 min
Bit rate : 125 kb/s
Channel(s) : 2 channels
Channel layout : L R
Sampling rate : 44.1 kHz
Frame rate : 43.066 FPS (1024 SPF)
Compression mode : Lossy
Delay relative to video : -23 ms
Stream size : 159 MiB (6%)
Language : English
Default : Yes
Forced : No

Complete name : NJPW.2021.07.23.Summer.Struggle.in.Osaka.Day.2.JAPANESE.WEB.h264-LATE.mkv
Format : Matroska
Format version : Version 4
File size : 2.57 GiB
Duration : 3 h 9 min
Overall bit rate : 1 939 kb/s

NJPW Summer Struggle

Video
ID : 1
Format : AVC
Format/Info : Advanced Video
Duration : 3 h 9 min
Bit rate : 1 836 kb/s
Width : 960 pixels
Height : 540 pixels
Display aspect ratio : 16:9
Frame rate mode : Constant
Frame rate : 30.000 FPS
Color space : YUV
Chroma subsampling : 4:2:0
Bit depth : 8 bits
Scan type : Progressive
Bits/(Pixel*Frame) : 0.118
Stream size : 2.44 GiB (95%)
Default : Yes
Forced : No
Color range : Limited
Color primaries : BT.601 PAL
Transfer characteristics : BT.601
Matrix coefficients : BT.470

NJPW Summer Struggle

Audio
ID : 2
Format : AAC LC
Format/Info : Advanced Audio
Codec ID : A_AAC-2
Duration : 3 h 9 min
Bit rate : 99.6 kb/s
Channel(s) : 2 channels
Channel layout : L R
Sampling rate : 44.1 kHz
Frame rate : 43.066 FPS
Compression mode : Lossy
Stream size : 135 MiB (5%)
Language : English
Default : Yes
Forced : No

NJPW Summer Struggle

Complete name : NJPW.2021.07.23.Summer.Struggle.in.Osaka.Day.2.ENGLISH.720p.WEB.h264-LATE.mkv
Format : Matroska
Format version : Version 4
File size : 2.52 GiB
Duration : 2 h 57 min
Overall bit rate : 2 032 kb/s

Video
ID : 1
Format : AVC
Format/Info : Advanced Video
Duration : 2 h 57 min
Bit rate : 1 904 kb/s
Width : 1 280 pixels
Height : 720 pixels
Display aspect ratio : 16:9
Frame rate mode : Constant
Frame rate : 30.000 FPS
Color space : YUV
Chroma subsampling : 4:2:0
Bit depth : 8 bits
Scan type : Progressive
Bits/(Pixel*Frame) : 0.069
Stream size : 2.36 GiB (94%)
Forced : No

NJPW Summer Struggle

Audio
ID : 2
Format : AAC LC
Format/Info : Advanced Audio
Codec ID : A_AAC-2
Duration : 2 h 57 min
Bit rate : 125 kb/s
Channel(s) : 2 channels
Channel layout : L R
Sampling rate : 44.1 kHz
Frame rate : 43.066 FPS (1024 SPF)
Compression mode : Lossy
Delay relative to video : -23 ms
Stream size : 159 MiB (6%)
Language : English
Default : Yes
Forced : No

Complete name : NJPW.2021.07.23.Summer.Struggle.in.Osaka.Day.2.JAPANESE.WEB.h264-LATE.mkv
Format : Matroska
Format version : Version 4
File size : 2.57 GiB
Duration : 3 h 9 min
Overall bit rate : 1 939 kb/s

NJPW Summer Struggle

Video
ID : 1
Format : AVC
Format/Info : Advanced Video
Duration : 3 h 9 min
Bit rate : 1 836 kb/s
Width : 960 pixels
Height : 540 pixels
Display aspect ratio : 16:9
Frame rate mode : Constant
Frame rate : 30.000 FPS
Color space : YUV
Chroma subsampling : 4:2:0
Bit depth : 8 bits
Scan type : Progressive
Bits/(Pixel*Frame) : 0.118
Stream size : 2.44 GiB (95%)
Default : Yes
Forced : No
Color range : Limited
Color primaries : BT.601 PAL
Transfer characteristics : BT.601
Matrix coefficients : BT.470

NJPW Summer Struggle

Audio
ID : 2
Format : AAC LC
Format/Info : Advanced Audio
Codec ID : A_AAC-2
Duration : 3 h 9 min
Bit rate : 99.6 kb/s
Channel(s) : 2 channels
Channel layout : L R
Sampling rate : 44.1 kHz
Frame rate : 43.066 FPS
Compression mode : Lossy
Stream size : 135 MiB (5%)
Language : English
Default : Yes
Forced : No

NJPW Summer Struggle

Complete name : NJPW.2021.07.23.Summer.Struggle.in.Osaka.Day.2.ENGLISH.720p.WEB.h264-LATE.mkv
Format : Matroska
Format version : Version 4
File size : 2.52 GiB
Duration : 2 h 57 min
Overall bit rate : 2 032 kb/s

Video
ID : 1
Format : AVC
Format/Info : Advanced Video
Duration : 2 h 57 min
Bit rate : 1 904 kb/s
Width : 1 280 pixels
Height : 720 pixels
Display aspect ratio : 16:9
Frame rate mode : Constant
Frame rate : 30.000 FPS
Color space : YUV
Chroma subsampling : 4:2:0
Bit depth : 8 bits
Scan type : Progressive
Bits/(Pixel*Frame) : 0.069
Stream size : 2.36 GiB (94%)
Forced : No

NJPW Summer Struggle

Audio
ID : 2
Format : AAC LC
Format/Info : Advanced Audio
Codec ID : A_AAC-2
Duration : 2 h 57 min
Bit rate : 125 kb/s
Channel(s) : 2 channels
Channel layout : L R
Sampling rate : 44.1 kHz
Frame rate : 43.066 FPS (1024 SPF)
Compression mode : Lossy
Delay relative to video : -23 ms
Stream size : 159 MiB (6%)
Language : English
Default : Yes
Forced : No

Complete name : NJPW.2021.07.23.Summer.Struggle.in.Osaka.Day.2.JAPANESE.WEB.h264-LATE.mkv
Format : Matroska
Format version : Version 4
File size : 2.57 GiB
Duration : 3 h 9 min
Overall bit rate : 1 939 kb/s

NJPW Summer Struggle

Video
ID : 1
Format : AVC
Format/Info : Advanced Video
Duration : 3 h 9 min
Bit rate : 1 836 kb/s
Width : 960 pixels
Height : 540 pixels
Display aspect ratio : 16:9
Frame rate mode : Constant
Frame rate : 30.000 FPS
Color space : YUV
Chroma subsampling : 4:2:0
Bit depth : 8 bits
Scan type : Progressive
Bits/(Pixel*Frame) : 0.118
Stream size : 2.44 GiB (95%)
Default : Yes
Forced : No
Color range : Limited
Color primaries : BT.601 PAL
Transfer characteristics : BT.601
Matrix coefficients : BT.470

NJPW Summer Struggle

Audio
ID : 2
Format : AAC LC
Format/Info : Advanced Audio
Codec ID : A_AAC-2
Duration : 3 h 9 min
Bit rate : 99.6 kb/s
Channel(s) : 2 channels
Channel layout : L R
Sampling rate : 44.1 kHz
Frame rate : 43.066 FPS
Compression mode : Lossy
Stream size : 135 MiB (5%)
Language : English
Default : Yes
Forced : No

NJPW Summer Struggle

Complete name : NJPW.2021.07.23.Summer.Struggle.in.Osaka.Day.2.ENGLISH.720p.WEB.h264-LATE.mkv
Format : Matroska
Format version : Version 4
File size : 2.52 GiB
Duration : 2 h 57 min
Overall bit rate : 2 032 kb/s

Video
ID : 1
Format : AVC
Format/Info : Advanced Video
Duration : 2 h 57 min
Bit rate : 1 904 kb/s
Width : 1 280 pixels
Height : 720 pixels
Display aspect ratio : 16:9
Frame rate mode : Constant
Frame rate : 30.000 FPS
Color space : YUV
Chroma subsampling : 4:2:0
Bit depth : 8 bits
Scan type : Progressive
Bits/(Pixel*Frame) : 0.069
Stream size : 2.36 GiB (94%)
Forced : No

NJPW Summer Struggle

Audio
ID : 2
Format : AAC LC
Format/Info : Advanced Audio
Codec ID : A_AAC-2
Duration : 2 h 57 min
Bit rate : 125 kb/s
Channel(s) : 2 channels
Channel layout : L R
Sampling rate : 44.1 kHz
Frame rate : 43.066 FPS (1024 SPF)
Compression mode : Lossy
Delay relative to video : -23 ms
Stream size : 159 MiB (6%)
Language : English
Default : Yes
Forced : No

Complete name : NJPW.2021.07.23.Summer.Struggle.in.Osaka.Day.2.JAPANESE.WEB.h264-LATE.mkv
Format : Matroska
Format version : Version 4
File size : 2.57 GiB
Duration : 3 h 9 min
Overall bit rate : 1 939 kb/s

NJPW Summer Struggle

Video
ID : 1
Format : AVC
Format/Info : Advanced Video
Duration : 3 h 9 min
Bit rate : 1 836 kb/s
Width : 960 pixels
Height : 540 pixels
Display aspect ratio : 16:9
Frame rate mode : Constant
Frame rate : 30.000 FPS
Color space : YUV
Chroma subsampling : 4:2:0
Bit depth : 8 bits
Scan type : Progressive
Bits/(Pixel*Frame) : 0.118
Stream size : 2.44 GiB (95%)
Default : Yes
Forced : No
Color range : Limited
Color primaries : BT.601 PAL
Transfer characteristics : BT.601
Matrix coefficients : BT.470

NJPW Summer Struggle

Audio
ID : 2
Format : AAC LC
Format/Info : Advanced Audio
Codec ID : A_AAC-2
Duration : 3 h 9 min
Bit rate : 99.6 kb/s
Channel(s) : 2 channels
Channel layout : L R
Sampling rate : 44.1 kHz
Frame rate : 43.066 FPS
Compression mode : Lossy
Stream size : 135 MiB (5%)
Language : English
Default : Yes
Forced : No

NJPW Summer Struggle

Complete name : NJPW.2021.07.23.Summer.Struggle.in.Osaka.Day.2.ENGLISH.720p.WEB.h264-LATE.mkv
Format : Matroska
Format version : Version 4
File size : 2.52 GiB
Duration : 2 h 57 min
Overall bit rate : 2 032 kb/s

Video
ID : 1
Format : AVC
Format/Info : Advanced Video
Duration : 2 h 57 min
Bit rate : 1 904 kb/s
Width : 1 280 pixels
Height : 720 pixels
Display aspect ratio : 16:9
Frame rate mode : Constant
Frame rate : 30.000 FPS
Color space : YUV
Chroma subsampling : 4:2:0
Bit depth : 8 bits
Scan type : Progressive
Bits/(Pixel*Frame) : 0.069
Stream size : 2.36 GiB (94%)
Forced : No

NJPW Summer Struggle

Audio
ID : 2
Format : AAC LC
Format/Info : Advanced Audio
Codec ID : A_AAC-2
Duration : 2 h 57 min
Bit rate : 125 kb/s
Channel(s) : 2 channels
Channel layout : L R
Sampling rate : 44.1 kHz
Frame rate : 43.066 FPS (1024 SPF)
Compression mode : Lossy
Delay relative to video : -23 ms
Stream size : 159 MiB (6%)
Language : English
Default : Yes
Forced : No

Complete name : NJPW.2021.07.23.Summer.Struggle.in.Osaka.Day.2.JAPANESE.WEB.h264-LATE.mkv
Format : Matroska
Format version : Version 4
File size : 2.57 GiB
Duration : 3 h 9 min
Overall bit rate : 1 939 kb/s

NJPW Summer Struggle

Video
ID : 1
Format : AVC
Format/Info : Advanced Video
Duration : 3 h 9 min
Bit rate : 1 836 kb/s
Width : 960 pixels
Height : 540 pixels
Display aspect ratio : 16:9
Frame rate mode : Constant
Frame rate : 30.000 FPS
Color space : YUV
Chroma subsampling : 4:2:0
Bit depth : 8 bits
Scan type : Progressive
Bits/(Pixel*Frame) : 0.118
Stream size : 2.44 GiB (95%)
Default : Yes
Forced : No
Color range : Limited
Color primaries : BT.601 PAL
Transfer characteristics : BT.601
Matrix coefficients : BT.470

NJPW Summer Struggle

Audio
ID : 2
Format : AAC LC
Format/Info : Advanced Audio
Codec ID : A_AAC-2
Duration : 3 h 9 min
Bit rate : 99.6 kb/s
Channel(s) : 2 channels
Channel layout : L R
Sampling rate : 44.1 kHz
Frame rate : 43.066 FPS
Compression mode : Lossy
Stream size : 135 MiB (5%)
Language : English
Default : Yes
Forced : No

NJPW Summer Struggle

Complete name : NJPW.2021.07.23.Summer.Struggle.in.Osaka.Day.2.ENGLISH.720p.WEB.h264-LATE.mkv
Format : Matroska
Format version : Version 4
File size : 2.52 GiB
Duration : 2 h 57 min
Overall bit rate : 2 032 kb/s

Video
ID : 1
Format : AVC
Format/Info : Advanced Video
Duration : 2 h 57 min
Bit rate : 1 904 kb/s
Width : 1 280 pixels
Height : 720 pixels
Display aspect ratio : 16:9
Frame rate mode : Constant
Frame rate : 30.000 FPS
Color space : YUV
Chroma subsampling : 4:2:0
Bit depth : 8 bits
Scan type : Progressive
Bits/(Pixel*Frame) : 0.069
Stream size : 2.36 GiB (94%)
Forced : No

NJPW Summer Struggle

Audio
ID : 2
Format : AAC LC
Format/Info : Advanced Audio
Codec ID : A_AAC-2
Duration : 2 h 57 min
Bit rate : 125 kb/s
Channel(s) : 2 channels
Channel layout : L R
Sampling rate : 44.1 kHz
Frame rate : 43.066 FPS (1024 SPF)
Compression mode : Lossy
Delay relative to video : -23 ms
Stream size : 159 MiB (6%)
Language : English
Default : Yes
Forced : No

Complete name : NJPW.2021.07.23.Summer.Struggle.in.Osaka.Day.2.JAPANESE.WEB.h264-LATE.mkv
Format : Matroska
Format version : Version 4
File size : 2.57 GiB
Duration : 3 h 9 min
Overall bit rate : 1 939 kb/s

NJPW Summer Struggle

Video
ID : 1
Format : AVC
Format/Info : Advanced Video
Duration : 3 h 9 min
Bit rate : 1 836 kb/s
Width : 960 pixels
Height : 540 pixels
Display aspect ratio : 16:9
Frame rate mode : Constant
Frame rate : 30.000 FPS
Color space : YUV
Chroma subsampling : 4:2:0
Bit depth : 8 bits
Scan type : Progressive
Bits/(Pixel*Frame) : 0.118
Stream size : 2.44 GiB (95%)
Default : Yes
Forced : No
Color range : Limited
Color primaries : BT.601 PAL
Transfer characteristics : BT.601
Matrix coefficients : BT.470

NJPW Summer Struggle

Audio
ID : 2
Format : AAC LC
Format/Info : Advanced Audio
Codec ID : A_AAC-2
Duration : 3 h 9 min
Bit rate : 99.6 kb/s
Channel(s) : 2 channels
Channel layout : L R
Sampling rate : 44.1 kHz
Frame rate : 43.066 FPS
Compression mode : Lossy
Stream size : 135 MiB (5%)
Language : English
Default : Yes
Forced : No

NJPW Summer Struggle

Complete name : NJPW.2021.07.23.Summer.Struggle.in.Osaka.Day.2.ENGLISH.720p.WEB.h264-LATE.mkv
Format : Matroska
Format version : Version 4
File size : 2.52 GiB
Duration : 2 h 57 min
Overall bit rate : 2 032 kb/s

Video
ID : 1
Format : AVC
Format/Info : Advanced Video
Duration : 2 h 57 min
Bit rate : 1 904 kb/s
Width : 1 280 pixels
Height : 720 pixels
Display aspect ratio : 16:9
Frame rate mode : Constant
Frame rate : 30.000 FPS
Color space : YUV
Chroma subsampling : 4:2:0
Bit depth : 8 bits
Scan type : Progressive
Bits/(Pixel*Frame) : 0.069
Stream size : 2.36 GiB (94%)
Forced : No

NJPW Summer Struggle

Audio
ID : 2
Format : AAC LC
Format/Info : Advanced Audio
Codec ID : A_AAC-2
Duration : 2 h 57 min
Bit rate : 125 kb/s
Channel(s) : 2 channels
Channel layout : L R
Sampling rate : 44.1 kHz
Frame rate : 43.066 FPS (1024 SPF)
Compression mode : Lossy
Delay relative to video : -23 ms
Stream size : 159 MiB (6%)
Language : English
Default : Yes
Forced : No

Complete name : NJPW.2021.07.23.Summer.Struggle.in.Osaka.Day.2.JAPANESE.WEB.h264-LATE.mkv
Format : Matroska
Format version : Version 4
File size : 2.57 GiB
Duration : 3 h 9 min
Overall bit rate : 1 939 kb/s

NJPW Summer Struggle

Video
ID : 1
Format : AVC
Format/Info : Advanced Video
Duration : 3 h 9 min
Bit rate : 1 836 kb/s
Width : 960 pixels
Height : 540 pixels
Display aspect ratio : 16:9
Frame rate mode : Constant
Frame rate : 30.000 FPS
Color space : YUV
Chroma subsampling : 4:2:0
Bit depth : 8 bits
Scan type : Progressive
Bits/(Pixel*Frame) : 0.118
Stream size : 2.44 GiB (95%)
Default : Yes
Forced : No
Color range : Limited
Color primaries : BT.601 PAL
Transfer characteristics : BT.601
Matrix coefficients : BT.470

NJPW Summer Struggle

Audio
ID : 2
Format : AAC LC
Format/Info : Advanced Audio
Codec ID : A_AAC-2
Duration : 3 h 9 min
Bit rate : 99.6 kb/s
Channel(s) : 2 channels
Channel layout : L R
Sampling rate : 44.1 kHz
Frame rate : 43.066 FPS
Compression mode : Lossy
Stream size : 135 MiB (5%)
Language : English
Default : Yes
Forced : No

NJPW Summer Struggle

Complete name : NJPW.2021.07.23.Summer.Struggle.in.Osaka.Day.2.ENGLISH.720p.WEB.h264-LATE.mkv
Format : Matroska
Format version : Version 4
File size : 2.52 GiB
Duration : 2 h 57 min
Overall bit rate : 2 032 kb/s

Video
ID : 1
Format : AVC
Format/Info : Advanced Video
Duration : 2 h 57 min
Bit rate : 1 904 kb/s
Width : 1 280 pixels
Height : 720 pixels
Display aspect ratio : 16:9
Frame rate mode : Constant
Frame rate : 30.000 FPS
Color space : YUV
Chroma subsampling : 4:2:0
Bit depth : 8 bits
Scan type : Progressive
Bits/(Pixel*Frame) : 0.069
Stream size : 2.36 GiB (94%)
Forced : No

NJPW Summer Struggle

Audio
ID : 2
Format : AAC LC
Format/Info : Advanced Audio
Codec ID : A_AAC-2
Duration : 2 h 57 min
Bit rate : 125 kb/s
Channel(s) : 2 channels
Channel layout : L R
Sampling rate : 44.1 kHz
Frame rate : 43.066 FPS (1024 SPF)
Compression mode : Lossy
Delay relative to video : -23 ms
Stream size : 159 MiB (6%)
Language : English
Default : Yes
Forced : No

Complete name : NJPW.2021.07.23.Summer.Struggle.in.Osaka.Day.2.JAPANESE.WEB.h264-LATE.mkv
Format : Matroska
Format version : Version 4
File size : 2.57 GiB
Duration : 3 h 9 min
Overall bit rate : 1 939 kb/s

NJPW Summer Struggle

Video
ID : 1
Format : AVC
Format/Info : Advanced Video
Duration : 3 h 9 min
Bit rate : 1 836 kb/s
Width : 960 pixels
Height : 540 pixels
Display aspect ratio : 16:9
Frame rate mode : Constant
Frame rate : 30.000 FPS
Color space : YUV
Chroma subsampling : 4:2:0
Bit depth : 8 bits
Scan type : Progressive
Bits/(Pixel*Frame) : 0.118
Stream size : 2.44 GiB (95%)
Default : Yes
Forced : No
Color range : Limited
Color primaries : BT.601 PAL
Transfer characteristics : BT.601
Matrix coefficients : BT.470

NJPW Summer Struggle

Audio
ID : 2
Format : AAC LC
Format/Info : Advanced Audio
Codec ID : A_AAC-2
Duration : 3 h 9 min
Bit rate : 99.6 kb/s
Channel(s) : 2 channels
Channel layout : L R
Sampling rate : 44.1 kHz
Frame rate : 43.066 FPS
Compression mode : Lossy
Stream size : 135 MiB (5%)
Language : English
Default : Yes
Forced : No

NJPW Summer Struggle

Complete name : NJPW.2021.07.23.Summer.Struggle.in.Osaka.Day.2.ENGLISH.720p.WEB.h264-LATE.mkv
Format : Matroska
Format version : Version 4
File size : 2.52 GiB
Duration : 2 h 57 min
Overall bit rate : 2 032 kb/s

Video
ID : 1
Format : AVC
Format/Info : Advanced Video
Duration : 2 h 57 min
Bit rate : 1 904 kb/s
Width : 1 280 pixels
Height : 720 pixels
Display aspect ratio : 16:9
Frame rate mode : Constant
Frame rate : 30.000 FPS
Color space : YUV
Chroma subsampling : 4:2:0
Bit depth : 8 bits
Scan type : Progressive
Bits/(Pixel*Frame) : 0.069
Stream size : 2.36 GiB (94%)
Forced : No

NJPW Summer Struggle

Audio
ID : 2
Format : AAC LC
Format/Info : Advanced Audio
Codec ID : A_AAC-2
Duration : 2 h 57 min
Bit rate : 125 kb/s
Channel(s) : 2 channels
Channel layout : L R
Sampling rate : 44.1 kHz
Frame rate : 43.066 FPS (1024 SPF)
Compression mode : Lossy
Delay relative to video : -23 ms
Stream size : 159 MiB (6%)
Language : English
Default : Yes
Forced : No

Complete name : NJPW.2021.07.23.Summer.Struggle.in.Osaka.Day.2.JAPANESE.WEB.h264-LATE.mkv
Format : Matroska
Format version : Version 4
File size : 2.57 GiB
Duration : 3 h 9 min
Overall bit rate : 1 939 kb/s

NJPW Summer Struggle

Video
ID : 1
Format : AVC
Format/Info : Advanced Video
Duration : 3 h 9 min
Bit rate : 1 836 kb/s
Width : 960 pixels
Height : 540 pixels
Display aspect ratio : 16:9
Frame rate mode : Constant
Frame rate : 30.000 FPS
Color space : YUV
Chroma subsampling : 4:2:0
Bit depth : 8 bits
Scan type : Progressive
Bits/(Pixel*Frame) : 0.118
Stream size : 2.44 GiB (95%)
Default : Yes
Forced : No
Color range : Limited
Color primaries : BT.601 PAL
Transfer characteristics : BT.601
Matrix coefficients : BT.470

NJPW Summer Struggle

Audio
ID : 2
Format : AAC LC
Format/Info : Advanced Audio
Codec ID : A_AAC-2
Duration : 3 h 9 min
Bit rate : 99.6 kb/s
Channel(s) : 2 channels
Channel layout : L R
Sampling rate : 44.1 kHz
Frame rate : 43.066 FPS
Compression mode : Lossy
Stream size : 135 MiB (5%)
Language : English
Default : Yes
Forced : No

NJPW Summer Struggle

Complete name : NJPW.2021.07.23.Summer.Struggle.in.Osaka.Day.2.ENGLISH.720p.WEB.h264-LATE.mkv
Format : Matroska
Format version : Version 4
File size : 2.52 GiB
Duration : 2 h 57 min
Overall bit rate : 2 032 kb/s

Video
ID : 1
Format : AVC
Format/Info : Advanced Video
Duration : 2 h 57 min
Bit rate : 1 904 kb/s
Width : 1 280 pixels
Height : 720 pixels
Display aspect ratio : 16:9
Frame rate mode : Constant
Frame rate : 30.000 FPS
Color space : YUV
Chroma subsampling : 4:2:0
Bit depth : 8 bits
Scan type : Progressive
Bits/(Pixel*Frame) : 0.069
Stream size : 2.36 GiB (94%)
Forced : No

NJPW Summer Struggle

Audio
ID : 2
Format : AAC LC
Format/Info : Advanced Audio
Codec ID : A_AAC-2
Duration : 2 h 57 min
Bit rate : 125 kb/s
Channel(s) : 2 channels
Channel layout : L R
Sampling rate : 44.1 kHz
Frame rate : 43.066 FPS (1024 SPF)
Compression mode : Lossy
Delay relative to video : -23 ms
Stream size : 159 MiB (6%)
Language : English
Default : Yes
Forced : No

Complete name : NJPW.2021.07.23.Summer.Struggle.in.Osaka.Day.2.JAPANESE.WEB.h264-LATE.mkv
Format : Matroska
Format version : Version 4
File size : 2.57 GiB
Duration : 3 h 9 min
Overall bit rate : 1 939 kb/s

NJPW Summer Struggle

Video
ID : 1
Format : AVC
Format/Info : Advanced Video
Duration : 3 h 9 min
Bit rate : 1 836 kb/s
Width : 960 pixels
Height : 540 pixels
Display aspect ratio : 16:9
Frame rate mode : Constant
Frame rate : 30.000 FPS
Color space : YUV
Chroma subsampling : 4:2:0
Bit depth : 8 bits
Scan type : Progressive
Bits/(Pixel*Frame) : 0.118
Stream size : 2.44 GiB (95%)
Default : Yes
Forced : No
Color range : Limited
Color primaries : BT.601 PAL
Transfer characteristics : BT.601
Matrix coefficients : BT.470

NJPW Summer Struggle

Audio
ID : 2
Format : AAC LC
Format/Info : Advanced Audio
Codec ID : A_AAC-2
Duration : 3 h 9 min
Bit rate : 99.6 kb/s
Channel(s) : 2 channels
Channel layout : L R
Sampling rate : 44.1 kHz
Frame rate : 43.066 FPS
Compression mode : Lossy
Stream size : 135 MiB (5%)
Language : English
Default : Yes
Forced : No

NJPW Summer Struggle

Complete name : NJPW.2021.07.23.Summer.Struggle.in.Osaka.Day.2.ENGLISH.720p.WEB.h264-LATE.mkv
Format : Matroska
Format version : Version 4
File size : 2.52 GiB
Duration : 2 h 57 min
Overall bit rate : 2 032 kb/s

Video
ID : 1
Format : AVC
Format/Info : Advanced Video
Duration : 2 h 57 min
Bit rate : 1 904 kb/s
Width : 1 280 pixels
Height : 720 pixels
Display aspect ratio : 16:9
Frame rate mode : Constant
Frame rate : 30.000 FPS
Color space : YUV
Chroma subsampling : 4:2:0
Bit depth : 8 bits
Scan type : Progressive
Bits/(Pixel*Frame) : 0.069
Stream size : 2.36 GiB (94%)
Forced : No

NJPW Summer Struggle

Audio
ID : 2
Format : AAC LC
Format/Info : Advanced Audio
Codec ID : A_AAC-2
Duration : 2 h 57 min
Bit rate : 125 kb/s
Channel(s) : 2 channels
Channel layout : L R
Sampling rate : 44.1 kHz
Frame rate : 43.066 FPS (1024 SPF)
Compression mode : Lossy
Delay relative to video : -23 ms
Stream size : 159 MiB (6%)
Language : English
Default : Yes
Forced : No

Complete name : NJPW.2021.07.23.Summer.Struggle.in.Osaka.Day.2.JAPANESE.WEB.h264-LATE.mkv
Format : Matroska
Format version : Version 4
File size : 2.57 GiB
Duration : 3 h 9 min
Overall bit rate : 1 939 kb/s

NJPW Summer Struggle

Video
ID : 1
Format : AVC
Format/Info : Advanced Video
Duration : 3 h 9 min
Bit rate : 1 836 kb/s
Width : 960 pixels
Height : 540 pixels
Display aspect ratio : 16:9
Frame rate mode : Constant
Frame rate : 30.000 FPS
Color space : YUV
Chroma subsampling : 4:2:0
Bit depth : 8 bits
Scan type : Progressive
Bits/(Pixel*Frame) : 0.118
Stream size : 2.44 GiB (95%)
Default : Yes
Forced : No
Color range : Limited
Color primaries : BT.601 PAL
Transfer characteristics : BT.601
Matrix coefficients : BT.470

NJPW Summer Struggle

Audio
ID : 2
Format : AAC LC
Format/Info : Advanced Audio
Codec ID : A_AAC-2
Duration : 3 h 9 min
Bit rate : 99.6 kb/s
Channel(s) : 2 channels
Channel layout : L R
Sampling rate : 44.1 kHz
Frame rate : 43.066 FPS
Compression mode : Lossy
Stream size : 135 MiB (5%)
Language : English
Default : Yes
Forced : No

NJPW Summer Struggle

Complete name : NJPW.2021.07.23.Summer.Struggle.in.Osaka.Day.2.ENGLISH.720p.WEB.h264-LATE.mkv
Format : Matroska
Format version : Version 4
File size : 2.52 GiB
Duration : 2 h 57 min
Overall bit rate : 2 032 kb/s

Video
ID : 1
Format : AVC
Format/Info : Advanced Video
Duration : 2 h 57 min
Bit rate : 1 904 kb/s
Width : 1 280 pixels
Height : 720 pixels
Display aspect ratio : 16:9
Frame rate mode : Constant
Frame rate : 30.000 FPS
Color space : YUV
Chroma subsampling : 4:2:0
Bit depth : 8 bits
Scan type : Progressive
Bits/(Pixel*Frame) : 0.069
Stream size : 2.36 GiB (94%)
Forced : No

NJPW Summer Struggle

Audio
ID : 2
Format : AAC LC
Format/Info : Advanced Audio
Codec ID : A_AAC-2
Duration : 2 h 57 min
Bit rate : 125 kb/s
Channel(s) : 2 channels
Channel layout : L R
Sampling rate : 44.1 kHz
Frame rate : 43.066 FPS (1024 SPF)
Compression mode : Lossy
Delay relative to video : -23 ms
Stream size : 159 MiB (6%)
Language : English
Default : Yes
Forced : No

Complete name : NJPW.2021.07.23.Summer.Struggle.in.Osaka.Day.2.JAPANESE.WEB.h264-LATE.mkv
Format : Matroska
Format version : Version 4
File size : 2.57 GiB
Duration : 3 h 9 min
Overall bit rate : 1 939 kb/s

NJPW Summer Struggle

Video
ID : 1
Format : AVC
Format/Info : Advanced Video
Duration : 3 h 9 min
Bit rate : 1 836 kb/s
Width : 960 pixels
Height : 540 pixels
Display aspect ratio : 16:9
Frame rate mode : Constant
Frame rate : 30.000 FPS
Color space : YUV
Chroma subsampling : 4:2:0
Bit depth : 8 bits
Scan type : Progressive
Bits/(Pixel*Frame) : 0.118
Stream size : 2.44 GiB (95%)
Default : Yes
Forced : No
Color range : Limited
Color primaries : BT.601 PAL
Transfer characteristics : BT.601
Matrix coefficients : BT.470

NJPW Summer Struggle

Audio
ID : 2
Format : AAC LC
Format/Info : Advanced Audio
Codec ID : A_AAC-2
Duration : 3 h 9 min
Bit rate : 99.6 kb/s
Channel(s) : 2 channels
Channel layout : L R
Sampling rate : 44.1 kHz
Frame rate : 43.066 FPS
Compression mode : Lossy
Stream size : 135 MiB (5%)
Language : English
Default : Yes
Forced : No

NJPW Summer Struggle

 

[collapse]

 

 

https://dx-tv.com/

Leave a Reply

Your email address will not be published. Required fields are marked *

This site uses Akismet to reduce spam. Learn how your comment data is processed.