NJPW Summer Struggle 2021 Day 12 Japan Free Replay

NJPW Summer Struggle 2021 Day 12 2021 08 10 Japan Online Free Replay DX-TV

NJPW Summer Struggle 

 NJPW Summer Struggle 2021

 

 

 

Download Links with High Speed


Dopapk

 

 

Show Links

 

http://shrt10.com/sxi9Ok7y

 

[collapse]

 

 

Nitroflare

 

 

Show Links

 

http://shrt10.com/8OgpPZx

 

[collapse]

 

 

Rapidgator

 

 

Show Links

 

http://shrt10.com/tq8jQfY8

 

[collapse]

 

 

Uploaded

 

 

Show Links

 

http://shrt10.com/AoOt6dw

 

[collapse]

 

 

Watch online

 

Server 1

 

 

 

 

NJPW Summer Struggle 

 

 

 

 

Server-2

 

 

 

 

watch now

 

 

 

|Server-3

 

 

 

 

watch now

 

 

Uploaded By Site DX-TV.com

 

 

Show Info This Show

NJPW Summer Struggle 

 

Complete name : NJPW Summer Struggle 2021 day 12 BY DX-TV,COM.mp4
Format : MPEG-4
Format profile : Base Media
Codec ID : isom
File size : 2.08 GiB
Duration : 2 h 32 min
Overall bit rate : 1 961 kb/s

Video
ID : 1
Format : AVC
Format/Info : Advanced Video
Duration : 2 h 32 min
Bit rate : 1 851 kb/s
Width : 960 pixels
Height : 540 pixels
Display aspect ratio : 16:9
Frame rate mode : Variable
Frame rate : 30.000 FPS
Minimum frame rate : 14.706 FPS
Maximum frame rate : 90 000.000 FPS
Color space : YUV
Chroma subsampling : 4:2:0
Bit depth : 8 bits
Scan type : Progressive
Bits/(Pixel*Frame) : 0.119
Stream size : 1.97 GiB (94%)
Color range : Limited
Color primaries : BT.601 PAL
Transfer characteristics : BT.601
Matrix coefficients : BT.470
Codec configuration box : avc

NJPW Summer Struggle 

Audio
ID : 2
Format : AAC LC
Format/Info : Advanced Audio
Codec ID : mp4a-40-2
Duration : 2 h 32 min
Bit rate mode : Constant
Bit rate : 99.3 kb/s
Channel(s) : 2 channels
Channel layout : L R
Sampling rate : 44.1 kHz
Frame rate : 43.066 FPS
Compression mode : Lossy
Stream size : 108 MiB (5%)
Default : Yes
Alternate group : 1

NJPW Summer Struggle 

Main event: NEVER Openweight 6-Man Tag team Championships: CHAOS (Hirooki Goto, YOSHI-HASHI & Tomohiro Ishii) vs Los Ingobernables De Japon (Tetsuya Naito, SANADA & BUSHI)

After Tomohiro Ishii, Hirooki Goto and YOSHI-HASHI outlasted Suzuki-Gun on August 1 in Korakuen Hall to log their eighth defence of the NEVER 6-Man titles, a new set of challengers were quick to make themselves known. BUSHI, SANADA and Tetsuya Naito fell short when they challenged in Korakuen Hall during Kizuna Road, but BUSHI was confident enough in Los Ingobernables De Japon’s ability as a team to request another chance at the titles, and the champions accepted. 

NJPW Summer Struggle 

As another layer to this title match, September 5 will see the IWGP Tag Team Championships defended in a three way match, when Dangerous Tekkers take on both Hirooki Goto and YOSHI-HASHI of CHAOS and Naito and SANADA of LIJ. The current tag team champions fell to YOSHI-HASHI and Goto when Dangerous Tekkers and Suzuki challenged for six man gold, and now this title match will be not only a thrilling main event in itself, but a possible preview of what is to come at the MetLife Dome during Wrestle Grand Slam. 

NJPW Summer Struggle 

The previews of this title match have provided plenty of aggression and intrigue themselves. Ishii has targeted BUSHI’s mask, claiming that the junior heavyweight spends more time thinking about his gear than he does winning matches. BUSHI has declared that he’s had his switch ‘flipped’ in preparation for tonight, and looks set to be bringing even more aggression than usual to Yokohama. 

NJPW Summer Struggle 

Will the NEVER titles return to LIJ, or will CHAOS move to V9? We find out Tuesday!

4th Match: Shingo Takagi vs Yujiro Takahashi

While his Los Ingobernables De Japon teammates compete in the NEVER 6-man title main event, IWGP World Heavyweight Champion Shingo Takagi competes in a special non title singles bout in the semi main in Yokohama. Takagi is four weeks away from colliding with EVIL in the MetLife Dome, and while the Dragon is confident as ever about his chances when it comes to defending the championship and beating some respect into the King of Darkness,

NJPW Summer Struggle 

outside factors have to be a concern. In Nagoya, EVIL defeated Tomohiro Ishii in singles action only after considerable interference from Dick Togo and Yujiro. This singles bout could present Shingo with an opportunity to remove one of the external factors in September 5’s title bout… or it could become a chance for BULLET CLUB to damage the champion before EVIL takes his shot. 

NJPW Summer Struggle 

Complete name : NJPW Summer Struggle 2021 day 12 BY DX-TV,COM.mp4
Format : MPEG-4
Format profile : Base Media
Codec ID : isom
File size : 2.08 GiB
Duration : 2 h 32 min
Overall bit rate : 1 961 kb/s

Video
ID : 1
Format : AVC
Format/Info : Advanced Video
Duration : 2 h 32 min
Bit rate : 1 851 kb/s
Width : 960 pixels
Height : 540 pixels
Display aspect ratio : 16:9
Frame rate mode : Variable
Frame rate : 30.000 FPS
Minimum frame rate : 14.706 FPS
Maximum frame rate : 90 000.000 FPS
Color space : YUV
Chroma subsampling : 4:2:0
Bit depth : 8 bits
Scan type : Progressive
Bits/(Pixel*Frame) : 0.119
Stream size : 1.97 GiB (94%)
Color range : Limited
Color primaries : BT.601 PAL
Transfer characteristics : BT.601
Matrix coefficients : BT.470
Codec configuration box : avc

NJPW Summer Struggle 

Audio
ID : 2
Format : AAC LC
Format/Info : Advanced Audio
Codec ID : mp4a-40-2
Duration : 2 h 32 min
Bit rate mode : Constant
Bit rate : 99.3 kb/s
Channel(s) : 2 channels
Channel layout : L R
Sampling rate : 44.1 kHz
Frame rate : 43.066 FPS
Compression mode : Lossy
Stream size : 108 MiB (5%)
Default : Yes
Alternate group : 1

NJPW Summer Struggle 

Main event: NEVER Openweight 6-Man Tag team Championships: CHAOS (Hirooki Goto, YOSHI-HASHI & Tomohiro Ishii) vs Los Ingobernables De Japon (Tetsuya Naito, SANADA & BUSHI)

After Tomohiro Ishii, Hirooki Goto and YOSHI-HASHI outlasted Suzuki-Gun on August 1 in Korakuen Hall to log their eighth defence of the NEVER 6-Man titles, a new set of challengers were quick to make themselves known. BUSHI, SANADA and Tetsuya Naito fell short when they challenged in Korakuen Hall during Kizuna Road, but BUSHI was confident enough in Los Ingobernables De Japon’s ability as a team to request another chance at the titles, and the champions accepted. 

NJPW Summer Struggle 

As another layer to this title match, September 5 will see the IWGP Tag Team Championships defended in a three way match, when Dangerous Tekkers take on both Hirooki Goto and YOSHI-HASHI of CHAOS and Naito and SANADA of LIJ. The current tag team champions fell to YOSHI-HASHI and Goto when Dangerous Tekkers and Suzuki challenged for six man gold, and now this title match will be not only a thrilling main event in itself, but a possible preview of what is to come at the MetLife Dome during Wrestle Grand Slam. 

NJPW Summer Struggle 

The previews of this title match have provided plenty of aggression and intrigue themselves. Ishii has targeted BUSHI’s mask, claiming that the junior heavyweight spends more time thinking about his gear than he does winning matches. BUSHI has declared that he’s had his switch ‘flipped’ in preparation for tonight, and looks set to be bringing even more aggression than usual to Yokohama. 

NJPW Summer Struggle 

Will the NEVER titles return to LIJ, or will CHAOS move to V9? We find out Tuesday!

4th Match: Shingo Takagi vs Yujiro Takahashi

While his Los Ingobernables De Japon teammates compete in the NEVER 6-man title main event, IWGP World Heavyweight Champion Shingo Takagi competes in a special non title singles bout in the semi main in Yokohama. Takagi is four weeks away from colliding with EVIL in the MetLife Dome, and while the Dragon is confident as ever about his chances when it comes to defending the championship and beating some respect into the King of Darkness,

NJPW Summer Struggle 

outside factors have to be a concern. In Nagoya, EVIL defeated Tomohiro Ishii in singles action only after considerable interference from Dick Togo and Yujiro. This singles bout could present Shingo with an opportunity to remove one of the external factors in September 5’s title bout… or it could become a chance for BULLET CLUB to damage the champion before EVIL takes his shot. 

NJPW Summer Struggle 

Complete name : NJPW Summer Struggle 2021 day 12 BY DX-TV,COM.mp4
Format : MPEG-4
Format profile : Base Media
Codec ID : isom
File size : 2.08 GiB
Duration : 2 h 32 min
Overall bit rate : 1 961 kb/s

Video
ID : 1
Format : AVC
Format/Info : Advanced Video
Duration : 2 h 32 min
Bit rate : 1 851 kb/s
Width : 960 pixels
Height : 540 pixels
Display aspect ratio : 16:9
Frame rate mode : Variable
Frame rate : 30.000 FPS
Minimum frame rate : 14.706 FPS
Maximum frame rate : 90 000.000 FPS
Color space : YUV
Chroma subsampling : 4:2:0
Bit depth : 8 bits
Scan type : Progressive
Bits/(Pixel*Frame) : 0.119
Stream size : 1.97 GiB (94%)
Color range : Limited
Color primaries : BT.601 PAL
Transfer characteristics : BT.601
Matrix coefficients : BT.470
Codec configuration box : avc

NJPW Summer Struggle 

Audio
ID : 2
Format : AAC LC
Format/Info : Advanced Audio
Codec ID : mp4a-40-2
Duration : 2 h 32 min
Bit rate mode : Constant
Bit rate : 99.3 kb/s
Channel(s) : 2 channels
Channel layout : L R
Sampling rate : 44.1 kHz
Frame rate : 43.066 FPS
Compression mode : Lossy
Stream size : 108 MiB (5%)
Default : Yes
Alternate group : 1

NJPW Summer Struggle 

Main event: NEVER Openweight 6-Man Tag team Championships: CHAOS (Hirooki Goto, YOSHI-HASHI & Tomohiro Ishii) vs Los Ingobernables De Japon (Tetsuya Naito, SANADA & BUSHI)

After Tomohiro Ishii, Hirooki Goto and YOSHI-HASHI outlasted Suzuki-Gun on August 1 in Korakuen Hall to log their eighth defence of the NEVER 6-Man titles, a new set of challengers were quick to make themselves known. BUSHI, SANADA and Tetsuya Naito fell short when they challenged in Korakuen Hall during Kizuna Road, but BUSHI was confident enough in Los Ingobernables De Japon’s ability as a team to request another chance at the titles, and the champions accepted. 

NJPW Summer Struggle 

As another layer to this title match, September 5 will see the IWGP Tag Team Championships defended in a three way match, when Dangerous Tekkers take on both Hirooki Goto and YOSHI-HASHI of CHAOS and Naito and SANADA of LIJ. The current tag team champions fell to YOSHI-HASHI and Goto when Dangerous Tekkers and Suzuki challenged for six man gold, and now this title match will be not only a thrilling main event in itself, but a possible preview of what is to come at the MetLife Dome during Wrestle Grand Slam. 

NJPW Summer Struggle 

The previews of this title match have provided plenty of aggression and intrigue themselves. Ishii has targeted BUSHI’s mask, claiming that the junior heavyweight spends more time thinking about his gear than he does winning matches. BUSHI has declared that he’s had his switch ‘flipped’ in preparation for tonight, and looks set to be bringing even more aggression than usual to Yokohama. 

NJPW Summer Struggle 

Will the NEVER titles return to LIJ, or will CHAOS move to V9? We find out Tuesday!

4th Match: Shingo Takagi vs Yujiro Takahashi

While his Los Ingobernables De Japon teammates compete in the NEVER 6-man title main event, IWGP World Heavyweight Champion Shingo Takagi competes in a special non title singles bout in the semi main in Yokohama. Takagi is four weeks away from colliding with EVIL in the MetLife Dome, and while the Dragon is confident as ever about his chances when it comes to defending the championship and beating some respect into the King of Darkness,

NJPW Summer Struggle 

outside factors have to be a concern. In Nagoya, EVIL defeated Tomohiro Ishii in singles action only after considerable interference from Dick Togo and Yujiro. This singles bout could present Shingo with an opportunity to remove one of the external factors in September 5’s title bout… or it could become a chance for BULLET CLUB to damage the champion before EVIL takes his shot. 

NJPW Summer Struggle 

Complete name : NJPW Summer Struggle 2021 day 12 BY DX-TV,COM.mp4
Format : MPEG-4
Format profile : Base Media
Codec ID : isom
File size : 2.08 GiB
Duration : 2 h 32 min
Overall bit rate : 1 961 kb/s

Video
ID : 1
Format : AVC
Format/Info : Advanced Video
Duration : 2 h 32 min
Bit rate : 1 851 kb/s
Width : 960 pixels
Height : 540 pixels
Display aspect ratio : 16:9
Frame rate mode : Variable
Frame rate : 30.000 FPS
Minimum frame rate : 14.706 FPS
Maximum frame rate : 90 000.000 FPS
Color space : YUV
Chroma subsampling : 4:2:0
Bit depth : 8 bits
Scan type : Progressive
Bits/(Pixel*Frame) : 0.119
Stream size : 1.97 GiB (94%)
Color range : Limited
Color primaries : BT.601 PAL
Transfer characteristics : BT.601
Matrix coefficients : BT.470
Codec configuration box : avc

NJPW Summer Struggle 

Audio
ID : 2
Format : AAC LC
Format/Info : Advanced Audio
Codec ID : mp4a-40-2
Duration : 2 h 32 min
Bit rate mode : Constant
Bit rate : 99.3 kb/s
Channel(s) : 2 channels
Channel layout : L R
Sampling rate : 44.1 kHz
Frame rate : 43.066 FPS
Compression mode : Lossy
Stream size : 108 MiB (5%)
Default : Yes
Alternate group : 1

NJPW Summer Struggle 

Main event: NEVER Openweight 6-Man Tag team Championships: CHAOS (Hirooki Goto, YOSHI-HASHI & Tomohiro Ishii) vs Los Ingobernables De Japon (Tetsuya Naito, SANADA & BUSHI)

After Tomohiro Ishii, Hirooki Goto and YOSHI-HASHI outlasted Suzuki-Gun on August 1 in Korakuen Hall to log their eighth defence of the NEVER 6-Man titles, a new set of challengers were quick to make themselves known. BUSHI, SANADA and Tetsuya Naito fell short when they challenged in Korakuen Hall during Kizuna Road, but BUSHI was confident enough in Los Ingobernables De Japon’s ability as a team to request another chance at the titles, and the champions accepted. 

NJPW Summer Struggle 

As another layer to this title match, September 5 will see the IWGP Tag Team Championships defended in a three way match, when Dangerous Tekkers take on both Hirooki Goto and YOSHI-HASHI of CHAOS and Naito and SANADA of LIJ. The current tag team champions fell to YOSHI-HASHI and Goto when Dangerous Tekkers and Suzuki challenged for six man gold, and now this title match will be not only a thrilling main event in itself, but a possible preview of what is to come at the MetLife Dome during Wrestle Grand Slam. 

NJPW Summer Struggle 

The previews of this title match have provided plenty of aggression and intrigue themselves. Ishii has targeted BUSHI’s mask, claiming that the junior heavyweight spends more time thinking about his gear than he does winning matches. BUSHI has declared that he’s had his switch ‘flipped’ in preparation for tonight, and looks set to be bringing even more aggression than usual to Yokohama. 

NJPW Summer Struggle 

Will the NEVER titles return to LIJ, or will CHAOS move to V9? We find out Tuesday!

4th Match: Shingo Takagi vs Yujiro Takahashi

While his Los Ingobernables De Japon teammates compete in the NEVER 6-man title main event, IWGP World Heavyweight Champion Shingo Takagi competes in a special non title singles bout in the semi main in Yokohama. Takagi is four weeks away from colliding with EVIL in the MetLife Dome, and while the Dragon is confident as ever about his chances when it comes to defending the championship and beating some respect into the King of Darkness,

NJPW Summer Struggle 

outside factors have to be a concern. In Nagoya, EVIL defeated Tomohiro Ishii in singles action only after considerable interference from Dick Togo and Yujiro. This singles bout could present Shingo with an opportunity to remove one of the external factors in September 5’s title bout… or it could become a chance for BULLET CLUB to damage the champion before EVIL takes his shot. 

NJPW Summer Struggle 

Complete name : NJPW Summer Struggle 2021 day 12 BY DX-TV,COM.mp4
Format : MPEG-4
Format profile : Base Media
Codec ID : isom
File size : 2.08 GiB
Duration : 2 h 32 min
Overall bit rate : 1 961 kb/s

Video
ID : 1
Format : AVC
Format/Info : Advanced Video
Duration : 2 h 32 min
Bit rate : 1 851 kb/s
Width : 960 pixels
Height : 540 pixels
Display aspect ratio : 16:9
Frame rate mode : Variable
Frame rate : 30.000 FPS
Minimum frame rate : 14.706 FPS
Maximum frame rate : 90 000.000 FPS
Color space : YUV
Chroma subsampling : 4:2:0
Bit depth : 8 bits
Scan type : Progressive
Bits/(Pixel*Frame) : 0.119
Stream size : 1.97 GiB (94%)
Color range : Limited
Color primaries : BT.601 PAL
Transfer characteristics : BT.601
Matrix coefficients : BT.470
Codec configuration box : avc

NJPW Summer Struggle 

Audio
ID : 2
Format : AAC LC
Format/Info : Advanced Audio
Codec ID : mp4a-40-2
Duration : 2 h 32 min
Bit rate mode : Constant
Bit rate : 99.3 kb/s
Channel(s) : 2 channels
Channel layout : L R
Sampling rate : 44.1 kHz
Frame rate : 43.066 FPS
Compression mode : Lossy
Stream size : 108 MiB (5%)
Default : Yes
Alternate group : 1

NJPW Summer Struggle 

Main event: NEVER Openweight 6-Man Tag team Championships: CHAOS (Hirooki Goto, YOSHI-HASHI & Tomohiro Ishii) vs Los Ingobernables De Japon (Tetsuya Naito, SANADA & BUSHI)

After Tomohiro Ishii, Hirooki Goto and YOSHI-HASHI outlasted Suzuki-Gun on August 1 in Korakuen Hall to log their eighth defence of the NEVER 6-Man titles, a new set of challengers were quick to make themselves known. BUSHI, SANADA and Tetsuya Naito fell short when they challenged in Korakuen Hall during Kizuna Road, but BUSHI was confident enough in Los Ingobernables De Japon’s ability as a team to request another chance at the titles, and the champions accepted. 

NJPW Summer Struggle 

As another layer to this title match, September 5 will see the IWGP Tag Team Championships defended in a three way match, when Dangerous Tekkers take on both Hirooki Goto and YOSHI-HASHI of CHAOS and Naito and SANADA of LIJ. The current tag team champions fell to YOSHI-HASHI and Goto when Dangerous Tekkers and Suzuki challenged for six man gold, and now this title match will be not only a thrilling main event in itself, but a possible preview of what is to come at the MetLife Dome during Wrestle Grand Slam. 

NJPW Summer Struggle 

The previews of this title match have provided plenty of aggression and intrigue themselves. Ishii has targeted BUSHI’s mask, claiming that the junior heavyweight spends more time thinking about his gear than he does winning matches. BUSHI has declared that he’s had his switch ‘flipped’ in preparation for tonight, and looks set to be bringing even more aggression than usual to Yokohama. 

NJPW Summer Struggle 

Will the NEVER titles return to LIJ, or will CHAOS move to V9? We find out Tuesday!

4th Match: Shingo Takagi vs Yujiro Takahashi

While his Los Ingobernables De Japon teammates compete in the NEVER 6-man title main event, IWGP World Heavyweight Champion Shingo Takagi competes in a special non title singles bout in the semi main in Yokohama. Takagi is four weeks away from colliding with EVIL in the MetLife Dome, and while the Dragon is confident as ever about his chances when it comes to defending the championship and beating some respect into the King of Darkness,

NJPW Summer Struggle 

outside factors have to be a concern. In Nagoya, EVIL defeated Tomohiro Ishii in singles action only after considerable interference from Dick Togo and Yujiro. This singles bout could present Shingo with an opportunity to remove one of the external factors in September 5’s title bout… or it could become a chance for BULLET CLUB to damage the champion before EVIL takes his shot. 

NJPW Summer Struggle 

 

[collapse]

 

 

https://dx-tv.com/

Leave a Reply

Your email address will not be published. Required fields are marked *

This site uses Akismet to reduce spam. Learn how your comment data is processed.