NJPW Summer Struggle 2021 Aug 31 Day 8 Free

NJPW Summer Struggle 2021 Aug 31 Day 8 Online Free Replay DX-TV

Contents show

NJPW Summer Struggle 2021

 NJPW Summer Struggle 2021

 

 

 

Download Links with High Speed


 

Dopapk

 

 

Show Links

 

http://shrt10.com/UBR2VFEO

 

[collapse]

 

 

Nitroflare

 

 

Show Links

 

http://shrt10.com/nudrG

 

[collapse]

 

 

Rapidgator

 

 

Show Links

 

http://shrt10.com/fvUmPmU

 

[collapse]

 

 

Uploaded

 

 

Show Links

 

http://shrt10.com/bOnWT

 

[collapse]

 

 

Watch online

 

Server 1

 

 

 

 

NJPW Summer Struggle 2021

 

 

 

 

Server-2

 

 

 

 

watch now

 

 

 

|Server-3

 

 

 

 

watch now

 

 

Uploaded By Site DX-TV.com

 

 

Show Info This Show

 

NJPW Summer Struggle 2021

Complete name : NJPW Summer Struggle 2021 Aug 31 Day 8 WEB DX-TV.com.mp4
Format : MPEG-4
Format profile : Base Media
Codec ID : isom
File size : 2.12 GiB
Duration : 2 h 35 min
Overall bit rate : 1 954 kb/s

NJPW Summer Struggle 2021

Video
ID : 1
Format : AVC
Format/Info : Advanced Video
Duration : 2 h 35 min
Bit rate : 1 844 kb/s
Width : 960 pixels
Height : 540 pixels
Display aspect ratio : 16:9
Frame rate mode : Variable
Frame rate : 30.000 FPS
Minimum frame rate : 14.706 FPS
Maximum frame rate : 90 000.000 FPS
Color space : YUV
Chroma subsampling : 4:2:0
Bit depth : 8 bits
Scan type : Progressive
Bits/(Pixel*Frame) : 0.119
Stream size : 2.00 GiB (94%)
Color range : Limited
Color primaries : BT.601 PAL
Transfer characteristics : BT.601
Matrix coefficients : BT.470 System B/G
Codec configuration box : avcC

NJPW Summer Struggle 2021

Audio
ID : 2
Format : AAC LC
Codec ID : mp4a-40-2
Duration : 2 h 35 min
Bit rate mode : Constant
Bit rate : 99.3 kb/s
Channel(s) : 2 channels
Channel layout : L R
Sampling rate : 44.1 kHz
Frame rate : 43.066 FPS (1024 SPF)
Compression mode : Lossy
Stream size : 110 MiB (5%)
Default : Yes
Alternate group : 1

NJPW Summer Struggle 2021

Complete name : NJPW Summer Struggle 2021 Aug 31 Day 8 WEB DX-TV.com.mp4
Format : MPEG-4
Format profile : Base Media
Codec ID : isom
File size : 2.12 GiB
Duration : 2 h 35 min
Overall bit rate : 1 954 kb/s

NJPW Summer Struggle 2021

Video
ID : 1
Format : AVC
Format/Info : Advanced Video
Duration : 2 h 35 min
Bit rate : 1 844 kb/s
Width : 960 pixels
Height : 540 pixels
Display aspect ratio : 16:9
Frame rate mode : Variable
Frame rate : 30.000 FPS
Minimum frame rate : 14.706 FPS
Maximum frame rate : 90 000.000 FPS
Color space : YUV
Chroma subsampling : 4:2:0
Bit depth : 8 bits
Scan type : Progressive
Bits/(Pixel*Frame) : 0.119
Stream size : 2.00 GiB (94%)
Color range : Limited
Color primaries : BT.601 PAL
Transfer characteristics : BT.601
Matrix coefficients : BT.470 System B/G
Codec configuration box : avcC

NJPW Summer Struggle 2021

Audio
ID : 2
Format : AAC LC
Codec ID : mp4a-40-2
Duration : 2 h 35 min
Bit rate mode : Constant
Bit rate : 99.3 kb/s
Channel(s) : 2 channels
Channel layout : L R
Sampling rate : 44.1 kHz
Frame rate : 43.066 FPS (1024 SPF)
Compression mode : Lossy
Stream size : 110 MiB (5%)
Default : Yes
Alternate group : 1

NJPW Summer Struggle 2021

Complete name : NJPW Summer Struggle 2021 Aug 31 Day 8 WEB DX-TV.com.mp4
Format : MPEG-4
Format profile : Base Media
Codec ID : isom
File size : 2.12 GiB
Duration : 2 h 35 min
Overall bit rate : 1 954 kb/s

NJPW Summer Struggle 2021

Video
ID : 1
Format : AVC
Format/Info : Advanced Video
Duration : 2 h 35 min
Bit rate : 1 844 kb/s
Width : 960 pixels
Height : 540 pixels
Display aspect ratio : 16:9
Frame rate mode : Variable
Frame rate : 30.000 FPS
Minimum frame rate : 14.706 FPS
Maximum frame rate : 90 000.000 FPS
Color space : YUV
Chroma subsampling : 4:2:0
Bit depth : 8 bits
Scan type : Progressive
Bits/(Pixel*Frame) : 0.119
Stream size : 2.00 GiB (94%)
Color range : Limited
Color primaries : BT.601 PAL
Transfer characteristics : BT.601
Matrix coefficients : BT.470 System B/G
Codec configuration box : avcC

NJPW Summer Struggle 2021

Audio
ID : 2
Format : AAC LC
Codec ID : mp4a-40-2
Duration : 2 h 35 min
Bit rate mode : Constant
Bit rate : 99.3 kb/s
Channel(s) : 2 channels
Channel layout : L R
Sampling rate : 44.1 kHz
Frame rate : 43.066 FPS (1024 SPF)
Compression mode : Lossy
Stream size : 110 MiB (5%)
Default : Yes
Alternate group : 1

NJPW Summer Struggle 2021

Complete name : NJPW Summer Struggle 2021 Aug 31 Day 8 WEB DX-TV.com.mp4
Format : MPEG-4
Format profile : Base Media
Codec ID : isom
File size : 2.12 GiB
Duration : 2 h 35 min
Overall bit rate : 1 954 kb/s

NJPW Summer Struggle 2021

Video
ID : 1
Format : AVC
Format/Info : Advanced Video
Duration : 2 h 35 min
Bit rate : 1 844 kb/s
Width : 960 pixels
Height : 540 pixels
Display aspect ratio : 16:9
Frame rate mode : Variable
Frame rate : 30.000 FPS
Minimum frame rate : 14.706 FPS
Maximum frame rate : 90 000.000 FPS
Color space : YUV
Chroma subsampling : 4:2:0
Bit depth : 8 bits
Scan type : Progressive
Bits/(Pixel*Frame) : 0.119
Stream size : 2.00 GiB (94%)
Color range : Limited
Color primaries : BT.601 PAL
Transfer characteristics : BT.601
Matrix coefficients : BT.470 System B/G
Codec configuration box : avcC

NJPW Summer Struggle 2021

Audio
ID : 2
Format : AAC LC
Codec ID : mp4a-40-2
Duration : 2 h 35 min
Bit rate mode : Constant
Bit rate : 99.3 kb/s
Channel(s) : 2 channels
Channel layout : L R
Sampling rate : 44.1 kHz
Frame rate : 43.066 FPS (1024 SPF)
Compression mode : Lossy
Stream size : 110 MiB (5%)
Default : Yes
Alternate group : 1

NJPW Summer Struggle 2021

Complete name : NJPW Summer Struggle 2021 Aug 31 Day 8 WEB DX-TV.com.mp4
Format : MPEG-4
Format profile : Base Media
Codec ID : isom
File size : 2.12 GiB
Duration : 2 h 35 min
Overall bit rate : 1 954 kb/s

NJPW Summer Struggle 2021

Video
ID : 1
Format : AVC
Format/Info : Advanced Video
Duration : 2 h 35 min
Bit rate : 1 844 kb/s
Width : 960 pixels
Height : 540 pixels
Display aspect ratio : 16:9
Frame rate mode : Variable
Frame rate : 30.000 FPS
Minimum frame rate : 14.706 FPS
Maximum frame rate : 90 000.000 FPS
Color space : YUV
Chroma subsampling : 4:2:0
Bit depth : 8 bits
Scan type : Progressive
Bits/(Pixel*Frame) : 0.119
Stream size : 2.00 GiB (94%)
Color range : Limited
Color primaries : BT.601 PAL
Transfer characteristics : BT.601
Matrix coefficients : BT.470 System B/G
Codec configuration box : avcC

NJPW Summer Struggle 2021

Audio
ID : 2
Format : AAC LC
Codec ID : mp4a-40-2
Duration : 2 h 35 min
Bit rate mode : Constant
Bit rate : 99.3 kb/s
Channel(s) : 2 channels
Channel layout : L R
Sampling rate : 44.1 kHz
Frame rate : 43.066 FPS (1024 SPF)
Compression mode : Lossy
Stream size : 110 MiB (5%)
Default : Yes
Alternate group : 1

NJPW Summer Struggle 2021

Complete name : NJPW Summer Struggle 2021 Aug 31 Day 8 WEB DX-TV.com.mp4
Format : MPEG-4
Format profile : Base Media
Codec ID : isom
File size : 2.12 GiB
Duration : 2 h 35 min
Overall bit rate : 1 954 kb/s

NJPW Summer Struggle 2021

Video
ID : 1
Format : AVC
Format/Info : Advanced Video
Duration : 2 h 35 min
Bit rate : 1 844 kb/s
Width : 960 pixels
Height : 540 pixels
Display aspect ratio : 16:9
Frame rate mode : Variable
Frame rate : 30.000 FPS
Minimum frame rate : 14.706 FPS
Maximum frame rate : 90 000.000 FPS
Color space : YUV
Chroma subsampling : 4:2:0
Bit depth : 8 bits
Scan type : Progressive
Bits/(Pixel*Frame) : 0.119
Stream size : 2.00 GiB (94%)
Color range : Limited
Color primaries : BT.601 PAL
Transfer characteristics : BT.601
Matrix coefficients : BT.470 System B/G
Codec configuration box : avcC

NJPW Summer Struggle 2021

Audio
ID : 2
Format : AAC LC
Codec ID : mp4a-40-2
Duration : 2 h 35 min
Bit rate mode : Constant
Bit rate : 99.3 kb/s
Channel(s) : 2 channels
Channel layout : L R
Sampling rate : 44.1 kHz
Frame rate : 43.066 FPS (1024 SPF)
Compression mode : Lossy
Stream size : 110 MiB (5%)
Default : Yes
Alternate group : 1

NJPW Summer Struggle 2021

Complete name : NJPW Summer Struggle 2021 Aug 31 Day 8 WEB DX-TV.com.mp4
Format : MPEG-4
Format profile : Base Media
Codec ID : isom
File size : 2.12 GiB
Duration : 2 h 35 min
Overall bit rate : 1 954 kb/s

NJPW Summer Struggle 2021

Video
ID : 1
Format : AVC
Format/Info : Advanced Video
Duration : 2 h 35 min
Bit rate : 1 844 kb/s
Width : 960 pixels
Height : 540 pixels
Display aspect ratio : 16:9
Frame rate mode : Variable
Frame rate : 30.000 FPS
Minimum frame rate : 14.706 FPS
Maximum frame rate : 90 000.000 FPS
Color space : YUV
Chroma subsampling : 4:2:0
Bit depth : 8 bits
Scan type : Progressive
Bits/(Pixel*Frame) : 0.119
Stream size : 2.00 GiB (94%)
Color range : Limited
Color primaries : BT.601 PAL
Transfer characteristics : BT.601
Matrix coefficients : BT.470 System B/G
Codec configuration box : avcC

NJPW Summer Struggle 2021

Audio
ID : 2
Format : AAC LC
Codec ID : mp4a-40-2
Duration : 2 h 35 min
Bit rate mode : Constant
Bit rate : 99.3 kb/s
Channel(s) : 2 channels
Channel layout : L R
Sampling rate : 44.1 kHz
Frame rate : 43.066 FPS (1024 SPF)
Compression mode : Lossy
Stream size : 110 MiB (5%)
Default : Yes
Alternate group : 1

NJPW Summer Struggle 2021

Complete name : NJPW Summer Struggle 2021 Aug 31 Day 8 WEB DX-TV.com.mp4
Format : MPEG-4
Format profile : Base Media
Codec ID : isom
File size : 2.12 GiB
Duration : 2 h 35 min
Overall bit rate : 1 954 kb/s

NJPW Summer Struggle 2021

Video
ID : 1
Format : AVC
Format/Info : Advanced Video
Duration : 2 h 35 min
Bit rate : 1 844 kb/s
Width : 960 pixels
Height : 540 pixels
Display aspect ratio : 16:9
Frame rate mode : Variable
Frame rate : 30.000 FPS
Minimum frame rate : 14.706 FPS
Maximum frame rate : 90 000.000 FPS
Color space : YUV
Chroma subsampling : 4:2:0
Bit depth : 8 bits
Scan type : Progressive
Bits/(Pixel*Frame) : 0.119
Stream size : 2.00 GiB (94%)
Color range : Limited
Color primaries : BT.601 PAL
Transfer characteristics : BT.601
Matrix coefficients : BT.470 System B/G
Codec configuration box : avcC

NJPW Summer Struggle 2021

Audio
ID : 2
Format : AAC LC
Codec ID : mp4a-40-2
Duration : 2 h 35 min
Bit rate mode : Constant
Bit rate : 99.3 kb/s
Channel(s) : 2 channels
Channel layout : L R
Sampling rate : 44.1 kHz
Frame rate : 43.066 FPS (1024 SPF)
Compression mode : Lossy
Stream size : 110 MiB (5%)
Default : Yes
Alternate group : 1

NJPW Summer Struggle 2021

Complete name : NJPW Summer Struggle 2021 Aug 31 Day 8 WEB DX-TV.com.mp4
Format : MPEG-4
Format profile : Base Media
Codec ID : isom
File size : 2.12 GiB
Duration : 2 h 35 min
Overall bit rate : 1 954 kb/s

NJPW Summer Struggle 2021

Video
ID : 1
Format : AVC
Format/Info : Advanced Video
Duration : 2 h 35 min
Bit rate : 1 844 kb/s
Width : 960 pixels
Height : 540 pixels
Display aspect ratio : 16:9
Frame rate mode : Variable
Frame rate : 30.000 FPS
Minimum frame rate : 14.706 FPS
Maximum frame rate : 90 000.000 FPS
Color space : YUV
Chroma subsampling : 4:2:0
Bit depth : 8 bits
Scan type : Progressive
Bits/(Pixel*Frame) : 0.119
Stream size : 2.00 GiB (94%)
Color range : Limited
Color primaries : BT.601 PAL
Transfer characteristics : BT.601
Matrix coefficients : BT.470 System B/G
Codec configuration box : avcC

NJPW Summer Struggle 2021

Audio
ID : 2
Format : AAC LC
Codec ID : mp4a-40-2
Duration : 2 h 35 min
Bit rate mode : Constant
Bit rate : 99.3 kb/s
Channel(s) : 2 channels
Channel layout : L R
Sampling rate : 44.1 kHz
Frame rate : 43.066 FPS (1024 SPF)
Compression mode : Lossy
Stream size : 110 MiB (5%)
Default : Yes
Alternate group : 1

NJPW Summer Struggle 2021

Complete name : NJPW Summer Struggle 2021 Aug 31 Day 8 WEB DX-TV.com.mp4
Format : MPEG-4
Format profile : Base Media
Codec ID : isom
File size : 2.12 GiB
Duration : 2 h 35 min
Overall bit rate : 1 954 kb/s

NJPW Summer Struggle 2021

Video
ID : 1
Format : AVC
Format/Info : Advanced Video
Duration : 2 h 35 min
Bit rate : 1 844 kb/s
Width : 960 pixels
Height : 540 pixels
Display aspect ratio : 16:9
Frame rate mode : Variable
Frame rate : 30.000 FPS
Minimum frame rate : 14.706 FPS
Maximum frame rate : 90 000.000 FPS
Color space : YUV
Chroma subsampling : 4:2:0
Bit depth : 8 bits
Scan type : Progressive
Bits/(Pixel*Frame) : 0.119
Stream size : 2.00 GiB (94%)
Color range : Limited
Color primaries : BT.601 PAL
Transfer characteristics : BT.601
Matrix coefficients : BT.470 System B/G
Codec configuration box : avcC

NJPW Summer Struggle 2021

Audio
ID : 2
Format : AAC LC
Codec ID : mp4a-40-2
Duration : 2 h 35 min
Bit rate mode : Constant
Bit rate : 99.3 kb/s
Channel(s) : 2 channels
Channel layout : L R
Sampling rate : 44.1 kHz
Frame rate : 43.066 FPS (1024 SPF)
Compression mode : Lossy
Stream size : 110 MiB (5%)
Default : Yes
Alternate group : 1

NJPW Summer Struggle 2021

Complete name : NJPW Summer Struggle 2021 Aug 31 Day 8 WEB DX-TV.com.mp4
Format : MPEG-4
Format profile : Base Media
Codec ID : isom
File size : 2.12 GiB
Duration : 2 h 35 min
Overall bit rate : 1 954 kb/s

NJPW Summer Struggle 2021

Video
ID : 1
Format : AVC
Format/Info : Advanced Video
Duration : 2 h 35 min
Bit rate : 1 844 kb/s
Width : 960 pixels
Height : 540 pixels
Display aspect ratio : 16:9
Frame rate mode : Variable
Frame rate : 30.000 FPS
Minimum frame rate : 14.706 FPS
Maximum frame rate : 90 000.000 FPS
Color space : YUV
Chroma subsampling : 4:2:0
Bit depth : 8 bits
Scan type : Progressive
Bits/(Pixel*Frame) : 0.119
Stream size : 2.00 GiB (94%)
Color range : Limited
Color primaries : BT.601 PAL
Transfer characteristics : BT.601
Matrix coefficients : BT.470 System B/G
Codec configuration box : avcC

NJPW Summer Struggle 2021

Audio
ID : 2
Format : AAC LC
Codec ID : mp4a-40-2
Duration : 2 h 35 min
Bit rate mode : Constant
Bit rate : 99.3 kb/s
Channel(s) : 2 channels
Channel layout : L R
Sampling rate : 44.1 kHz
Frame rate : 43.066 FPS (1024 SPF)
Compression mode : Lossy
Stream size : 110 MiB (5%)
Default : Yes
Alternate group : 1

NJPW Summer Struggle 2021

Complete name : NJPW Summer Struggle 2021 Aug 31 Day 8 WEB DX-TV.com.mp4
Format : MPEG-4
Format profile : Base Media
Codec ID : isom
File size : 2.12 GiB
Duration : 2 h 35 min
Overall bit rate : 1 954 kb/s

NJPW Summer Struggle 2021

Video
ID : 1
Format : AVC
Format/Info : Advanced Video
Duration : 2 h 35 min
Bit rate : 1 844 kb/s
Width : 960 pixels
Height : 540 pixels
Display aspect ratio : 16:9
Frame rate mode : Variable
Frame rate : 30.000 FPS
Minimum frame rate : 14.706 FPS
Maximum frame rate : 90 000.000 FPS
Color space : YUV
Chroma subsampling : 4:2:0
Bit depth : 8 bits
Scan type : Progressive
Bits/(Pixel*Frame) : 0.119
Stream size : 2.00 GiB (94%)
Color range : Limited
Color primaries : BT.601 PAL
Transfer characteristics : BT.601
Matrix coefficients : BT.470 System B/G
Codec configuration box : avcC

NJPW Summer Struggle 2021

Audio
ID : 2
Format : AAC LC
Codec ID : mp4a-40-2
Duration : 2 h 35 min
Bit rate mode : Constant
Bit rate : 99.3 kb/s
Channel(s) : 2 channels
Channel layout : L R
Sampling rate : 44.1 kHz
Frame rate : 43.066 FPS (1024 SPF)
Compression mode : Lossy
Stream size : 110 MiB (5%)
Default : Yes
Alternate group : 1

NJPW Summer Struggle 2021

Complete name : NJPW Summer Struggle 2021 Aug 31 Day 8 WEB DX-TV.com.mp4
Format : MPEG-4
Format profile : Base Media
Codec ID : isom
File size : 2.12 GiB
Duration : 2 h 35 min
Overall bit rate : 1 954 kb/s

NJPW Summer Struggle 2021

Video
ID : 1
Format : AVC
Format/Info : Advanced Video
Duration : 2 h 35 min
Bit rate : 1 844 kb/s
Width : 960 pixels
Height : 540 pixels
Display aspect ratio : 16:9
Frame rate mode : Variable
Frame rate : 30.000 FPS
Minimum frame rate : 14.706 FPS
Maximum frame rate : 90 000.000 FPS
Color space : YUV
Chroma subsampling : 4:2:0
Bit depth : 8 bits
Scan type : Progressive
Bits/(Pixel*Frame) : 0.119
Stream size : 2.00 GiB (94%)
Color range : Limited
Color primaries : BT.601 PAL
Transfer characteristics : BT.601
Matrix coefficients : BT.470 System B/G
Codec configuration box : avcC

NJPW Summer Struggle 2021

Audio
ID : 2
Format : AAC LC
Codec ID : mp4a-40-2
Duration : 2 h 35 min
Bit rate mode : Constant
Bit rate : 99.3 kb/s
Channel(s) : 2 channels
Channel layout : L R
Sampling rate : 44.1 kHz
Frame rate : 43.066 FPS (1024 SPF)
Compression mode : Lossy
Stream size : 110 MiB (5%)
Default : Yes
Alternate group : 1

NJPW Summer Struggle 2021

Complete name : NJPW Summer Struggle 2021 Aug 31 Day 8 WEB DX-TV.com.mp4
Format : MPEG-4
Format profile : Base Media
Codec ID : isom
File size : 2.12 GiB
Duration : 2 h 35 min
Overall bit rate : 1 954 kb/s

NJPW Summer Struggle 2021

Video
ID : 1
Format : AVC
Format/Info : Advanced Video
Duration : 2 h 35 min
Bit rate : 1 844 kb/s
Width : 960 pixels
Height : 540 pixels
Display aspect ratio : 16:9
Frame rate mode : Variable
Frame rate : 30.000 FPS
Minimum frame rate : 14.706 FPS
Maximum frame rate : 90 000.000 FPS
Color space : YUV
Chroma subsampling : 4:2:0
Bit depth : 8 bits
Scan type : Progressive
Bits/(Pixel*Frame) : 0.119
Stream size : 2.00 GiB (94%)
Color range : Limited
Color primaries : BT.601 PAL
Transfer characteristics : BT.601
Matrix coefficients : BT.470 System B/G
Codec configuration box : avcC

NJPW Summer Struggle 2021

Audio
ID : 2
Format : AAC LC
Codec ID : mp4a-40-2
Duration : 2 h 35 min
Bit rate mode : Constant
Bit rate : 99.3 kb/s
Channel(s) : 2 channels
Channel layout : L R
Sampling rate : 44.1 kHz
Frame rate : 43.066 FPS (1024 SPF)
Compression mode : Lossy
Stream size : 110 MiB (5%)
Default : Yes
Alternate group : 1

NJPW Summer Struggle 2021

Complete name : NJPW Summer Struggle 2021 Aug 31 Day 8 WEB DX-TV.com.mp4
Format : MPEG-4
Format profile : Base Media
Codec ID : isom
File size : 2.12 GiB
Duration : 2 h 35 min
Overall bit rate : 1 954 kb/s

NJPW Summer Struggle 2021

Video
ID : 1
Format : AVC
Format/Info : Advanced Video
Duration : 2 h 35 min
Bit rate : 1 844 kb/s
Width : 960 pixels
Height : 540 pixels
Display aspect ratio : 16:9
Frame rate mode : Variable
Frame rate : 30.000 FPS
Minimum frame rate : 14.706 FPS
Maximum frame rate : 90 000.000 FPS
Color space : YUV
Chroma subsampling : 4:2:0
Bit depth : 8 bits
Scan type : Progressive
Bits/(Pixel*Frame) : 0.119
Stream size : 2.00 GiB (94%)
Color range : Limited
Color primaries : BT.601 PAL
Transfer characteristics : BT.601
Matrix coefficients : BT.470 System B/G
Codec configuration box : avcC

NJPW Summer Struggle 2021

Audio
ID : 2
Format : AAC LC
Codec ID : mp4a-40-2
Duration : 2 h 35 min
Bit rate mode : Constant
Bit rate : 99.3 kb/s
Channel(s) : 2 channels
Channel layout : L R
Sampling rate : 44.1 kHz
Frame rate : 43.066 FPS (1024 SPF)
Compression mode : Lossy
Stream size : 110 MiB (5%)
Default : Yes
Alternate group : 1

NJPW Summer Struggle 2021

Complete name : NJPW Summer Struggle 2021 Aug 31 Day 8 WEB DX-TV.com.mp4
Format : MPEG-4
Format profile : Base Media
Codec ID : isom
File size : 2.12 GiB
Duration : 2 h 35 min
Overall bit rate : 1 954 kb/s

NJPW Summer Struggle 2021

Video
ID : 1
Format : AVC
Format/Info : Advanced Video
Duration : 2 h 35 min
Bit rate : 1 844 kb/s
Width : 960 pixels
Height : 540 pixels
Display aspect ratio : 16:9
Frame rate mode : Variable
Frame rate : 30.000 FPS
Minimum frame rate : 14.706 FPS
Maximum frame rate : 90 000.000 FPS
Color space : YUV
Chroma subsampling : 4:2:0
Bit depth : 8 bits
Scan type : Progressive
Bits/(Pixel*Frame) : 0.119
Stream size : 2.00 GiB (94%)
Color range : Limited
Color primaries : BT.601 PAL
Transfer characteristics : BT.601
Matrix coefficients : BT.470 System B/G
Codec configuration box : avcC

NJPW Summer Struggle 2021

Audio
ID : 2
Format : AAC LC
Codec ID : mp4a-40-2
Duration : 2 h 35 min
Bit rate mode : Constant
Bit rate : 99.3 kb/s
Channel(s) : 2 channels
Channel layout : L R
Sampling rate : 44.1 kHz
Frame rate : 43.066 FPS (1024 SPF)
Compression mode : Lossy
Stream size : 110 MiB (5%)
Default : Yes
Alternate group : 1

NJPW Summer Struggle 2021

Complete name : NJPW Summer Struggle 2021 Aug 31 Day 8 WEB DX-TV.com.mp4
Format : MPEG-4
Format profile : Base Media
Codec ID : isom
File size : 2.12 GiB
Duration : 2 h 35 min
Overall bit rate : 1 954 kb/s

NJPW Summer Struggle 2021

Video
ID : 1
Format : AVC
Format/Info : Advanced Video
Duration : 2 h 35 min
Bit rate : 1 844 kb/s
Width : 960 pixels
Height : 540 pixels
Display aspect ratio : 16:9
Frame rate mode : Variable
Frame rate : 30.000 FPS
Minimum frame rate : 14.706 FPS
Maximum frame rate : 90 000.000 FPS
Color space : YUV
Chroma subsampling : 4:2:0
Bit depth : 8 bits
Scan type : Progressive
Bits/(Pixel*Frame) : 0.119
Stream size : 2.00 GiB (94%)
Color range : Limited
Color primaries : BT.601 PAL
Transfer characteristics : BT.601
Matrix coefficients : BT.470 System B/G
Codec configuration box : avcC

NJPW Summer Struggle 2021

Audio
ID : 2
Format : AAC LC
Codec ID : mp4a-40-2
Duration : 2 h 35 min
Bit rate mode : Constant
Bit rate : 99.3 kb/s
Channel(s) : 2 channels
Channel layout : L R
Sampling rate : 44.1 kHz
Frame rate : 43.066 FPS (1024 SPF)
Compression mode : Lossy
Stream size : 110 MiB (5%)
Default : Yes
Alternate group : 1

NJPW Summer Struggle 2021

Complete name : NJPW Summer Struggle 2021 Aug 31 Day 8 WEB DX-TV.com.mp4
Format : MPEG-4
Format profile : Base Media
Codec ID : isom
File size : 2.12 GiB
Duration : 2 h 35 min
Overall bit rate : 1 954 kb/s

NJPW Summer Struggle 2021

Video
ID : 1
Format : AVC
Format/Info : Advanced Video
Duration : 2 h 35 min
Bit rate : 1 844 kb/s
Width : 960 pixels
Height : 540 pixels
Display aspect ratio : 16:9
Frame rate mode : Variable
Frame rate : 30.000 FPS
Minimum frame rate : 14.706 FPS
Maximum frame rate : 90 000.000 FPS
Color space : YUV
Chroma subsampling : 4:2:0
Bit depth : 8 bits
Scan type : Progressive
Bits/(Pixel*Frame) : 0.119
Stream size : 2.00 GiB (94%)
Color range : Limited
Color primaries : BT.601 PAL
Transfer characteristics : BT.601
Matrix coefficients : BT.470 System B/G
Codec configuration box : avcC

NJPW Summer Struggle 2021

Audio
ID : 2
Format : AAC LC
Codec ID : mp4a-40-2
Duration : 2 h 35 min
Bit rate mode : Constant
Bit rate : 99.3 kb/s
Channel(s) : 2 channels
Channel layout : L R
Sampling rate : 44.1 kHz
Frame rate : 43.066 FPS (1024 SPF)
Compression mode : Lossy
Stream size : 110 MiB (5%)
Default : Yes
Alternate group : 1

NJPW Summer Struggle 2021

Complete name : NJPW Summer Struggle 2021 Aug 31 Day 8 WEB DX-TV.com.mp4
Format : MPEG-4
Format profile : Base Media
Codec ID : isom
File size : 2.12 GiB
Duration : 2 h 35 min
Overall bit rate : 1 954 kb/s

NJPW Summer Struggle 2021

Video
ID : 1
Format : AVC
Format/Info : Advanced Video
Duration : 2 h 35 min
Bit rate : 1 844 kb/s
Width : 960 pixels
Height : 540 pixels
Display aspect ratio : 16:9
Frame rate mode : Variable
Frame rate : 30.000 FPS
Minimum frame rate : 14.706 FPS
Maximum frame rate : 90 000.000 FPS
Color space : YUV
Chroma subsampling : 4:2:0
Bit depth : 8 bits
Scan type : Progressive
Bits/(Pixel*Frame) : 0.119
Stream size : 2.00 GiB (94%)
Color range : Limited
Color primaries : BT.601 PAL
Transfer characteristics : BT.601
Matrix coefficients : BT.470 System B/G
Codec configuration box : avcC

NJPW Summer Struggle 2021

Audio
ID : 2
Format : AAC LC
Codec ID : mp4a-40-2
Duration : 2 h 35 min
Bit rate mode : Constant
Bit rate : 99.3 kb/s
Channel(s) : 2 channels
Channel layout : L R
Sampling rate : 44.1 kHz
Frame rate : 43.066 FPS (1024 SPF)
Compression mode : Lossy
Stream size : 110 MiB (5%)
Default : Yes
Alternate group : 1

NJPW Summer Struggle 2021

Complete name : NJPW Summer Struggle 2021 Aug 31 Day 8 WEB DX-TV.com.mp4
Format : MPEG-4
Format profile : Base Media
Codec ID : isom
File size : 2.12 GiB
Duration : 2 h 35 min
Overall bit rate : 1 954 kb/s

NJPW Summer Struggle 2021

Video
ID : 1
Format : AVC
Format/Info : Advanced Video
Duration : 2 h 35 min
Bit rate : 1 844 kb/s
Width : 960 pixels
Height : 540 pixels
Display aspect ratio : 16:9
Frame rate mode : Variable
Frame rate : 30.000 FPS
Minimum frame rate : 14.706 FPS
Maximum frame rate : 90 000.000 FPS
Color space : YUV
Chroma subsampling : 4:2:0
Bit depth : 8 bits
Scan type : Progressive
Bits/(Pixel*Frame) : 0.119
Stream size : 2.00 GiB (94%)
Color range : Limited
Color primaries : BT.601 PAL
Transfer characteristics : BT.601
Matrix coefficients : BT.470 System B/G
Codec configuration box : avcC

NJPW Summer Struggle 2021

Audio
ID : 2
Format : AAC LC
Codec ID : mp4a-40-2
Duration : 2 h 35 min
Bit rate mode : Constant
Bit rate : 99.3 kb/s
Channel(s) : 2 channels
Channel layout : L R
Sampling rate : 44.1 kHz
Frame rate : 43.066 FPS (1024 SPF)
Compression mode : Lossy
Stream size : 110 MiB (5%)
Default : Yes
Alternate group : 1

NJPW Summer Struggle 2021

Complete name : NJPW Summer Struggle 2021 Aug 31 Day 8 WEB DX-TV.com.mp4
Format : MPEG-4
Format profile : Base Media
Codec ID : isom
File size : 2.12 GiB
Duration : 2 h 35 min
Overall bit rate : 1 954 kb/s

NJPW Summer Struggle 2021

Video
ID : 1
Format : AVC
Format/Info : Advanced Video
Duration : 2 h 35 min
Bit rate : 1 844 kb/s
Width : 960 pixels
Height : 540 pixels
Display aspect ratio : 16:9
Frame rate mode : Variable
Frame rate : 30.000 FPS
Minimum frame rate : 14.706 FPS
Maximum frame rate : 90 000.000 FPS
Color space : YUV
Chroma subsampling : 4:2:0
Bit depth : 8 bits
Scan type : Progressive
Bits/(Pixel*Frame) : 0.119
Stream size : 2.00 GiB (94%)
Color range : Limited
Color primaries : BT.601 PAL
Transfer characteristics : BT.601
Matrix coefficients : BT.470 System B/G
Codec configuration box : avcC

NJPW Summer Struggle 2021

Audio
ID : 2
Format : AAC LC
Codec ID : mp4a-40-2
Duration : 2 h 35 min
Bit rate mode : Constant
Bit rate : 99.3 kb/s
Channel(s) : 2 channels
Channel layout : L R
Sampling rate : 44.1 kHz
Frame rate : 43.066 FPS (1024 SPF)
Compression mode : Lossy
Stream size : 110 MiB (5%)
Default : Yes
Alternate group : 1

NJPW Summer Struggle 2021

Complete name : NJPW Summer Struggle 2021 Aug 31 Day 8 WEB DX-TV.com.mp4
Format : MPEG-4
Format profile : Base Media
Codec ID : isom
File size : 2.12 GiB
Duration : 2 h 35 min
Overall bit rate : 1 954 kb/s

NJPW Summer Struggle 2021

Video
ID : 1
Format : AVC
Format/Info : Advanced Video
Duration : 2 h 35 min
Bit rate : 1 844 kb/s
Width : 960 pixels
Height : 540 pixels
Display aspect ratio : 16:9
Frame rate mode : Variable
Frame rate : 30.000 FPS
Minimum frame rate : 14.706 FPS
Maximum frame rate : 90 000.000 FPS
Color space : YUV
Chroma subsampling : 4:2:0
Bit depth : 8 bits
Scan type : Progressive
Bits/(Pixel*Frame) : 0.119
Stream size : 2.00 GiB (94%)
Color range : Limited
Color primaries : BT.601 PAL
Transfer characteristics : BT.601
Matrix coefficients : BT.470 System B/G
Codec configuration box : avcC

NJPW Summer Struggle 2021

Audio
ID : 2
Format : AAC LC
Codec ID : mp4a-40-2
Duration : 2 h 35 min
Bit rate mode : Constant
Bit rate : 99.3 kb/s
Channel(s) : 2 channels
Channel layout : L R
Sampling rate : 44.1 kHz
Frame rate : 43.066 FPS (1024 SPF)
Compression mode : Lossy
Stream size : 110 MiB (5%)
Default : Yes
Alternate group : 1

NJPW Summer Struggle 2021

Complete name : NJPW Summer Struggle 2021 Aug 31 Day 8 WEB DX-TV.com.mp4
Format : MPEG-4
Format profile : Base Media
Codec ID : isom
File size : 2.12 GiB
Duration : 2 h 35 min
Overall bit rate : 1 954 kb/s

NJPW Summer Struggle 2021

Video
ID : 1
Format : AVC
Format/Info : Advanced Video
Duration : 2 h 35 min
Bit rate : 1 844 kb/s
Width : 960 pixels
Height : 540 pixels
Display aspect ratio : 16:9
Frame rate mode : Variable
Frame rate : 30.000 FPS
Minimum frame rate : 14.706 FPS
Maximum frame rate : 90 000.000 FPS
Color space : YUV
Chroma subsampling : 4:2:0
Bit depth : 8 bits
Scan type : Progressive
Bits/(Pixel*Frame) : 0.119
Stream size : 2.00 GiB (94%)
Color range : Limited
Color primaries : BT.601 PAL
Transfer characteristics : BT.601
Matrix coefficients : BT.470 System B/G
Codec configuration box : avcC

NJPW Summer Struggle 2021

Audio
ID : 2
Format : AAC LC
Codec ID : mp4a-40-2
Duration : 2 h 35 min
Bit rate mode : Constant
Bit rate : 99.3 kb/s
Channel(s) : 2 channels
Channel layout : L R
Sampling rate : 44.1 kHz
Frame rate : 43.066 FPS (1024 SPF)
Compression mode : Lossy
Stream size : 110 MiB (5%)
Default : Yes
Alternate group : 1

NJPW Summer Struggle 2021

Complete name : NJPW Summer Struggle 2021 Aug 31 Day 8 WEB DX-TV.com.mp4
Format : MPEG-4
Format profile : Base Media
Codec ID : isom
File size : 2.12 GiB
Duration : 2 h 35 min
Overall bit rate : 1 954 kb/s

NJPW Summer Struggle 2021

Video
ID : 1
Format : AVC
Format/Info : Advanced Video
Duration : 2 h 35 min
Bit rate : 1 844 kb/s
Width : 960 pixels
Height : 540 pixels
Display aspect ratio : 16:9
Frame rate mode : Variable
Frame rate : 30.000 FPS
Minimum frame rate : 14.706 FPS
Maximum frame rate : 90 000.000 FPS
Color space : YUV
Chroma subsampling : 4:2:0
Bit depth : 8 bits
Scan type : Progressive
Bits/(Pixel*Frame) : 0.119
Stream size : 2.00 GiB (94%)
Color range : Limited
Color primaries : BT.601 PAL
Transfer characteristics : BT.601
Matrix coefficients : BT.470 System B/G
Codec configuration box : avcC

NJPW Summer Struggle 2021

Audio
ID : 2
Format : AAC LC
Codec ID : mp4a-40-2
Duration : 2 h 35 min
Bit rate mode : Constant
Bit rate : 99.3 kb/s
Channel(s) : 2 channels
Channel layout : L R
Sampling rate : 44.1 kHz
Frame rate : 43.066 FPS (1024 SPF)
Compression mode : Lossy
Stream size : 110 MiB (5%)
Default : Yes
Alternate group : 1

NJPW Summer Struggle 2021

Complete name : NJPW Summer Struggle 2021 Aug 31 Day 8 WEB DX-TV.com.mp4
Format : MPEG-4
Format profile : Base Media
Codec ID : isom
File size : 2.12 GiB
Duration : 2 h 35 min
Overall bit rate : 1 954 kb/s

NJPW Summer Struggle 2021

Video
ID : 1
Format : AVC
Format/Info : Advanced Video
Duration : 2 h 35 min
Bit rate : 1 844 kb/s
Width : 960 pixels
Height : 540 pixels
Display aspect ratio : 16:9
Frame rate mode : Variable
Frame rate : 30.000 FPS
Minimum frame rate : 14.706 FPS
Maximum frame rate : 90 000.000 FPS
Color space : YUV
Chroma subsampling : 4:2:0
Bit depth : 8 bits
Scan type : Progressive
Bits/(Pixel*Frame) : 0.119
Stream size : 2.00 GiB (94%)
Color range : Limited
Color primaries : BT.601 PAL
Transfer characteristics : BT.601
Matrix coefficients : BT.470 System B/G
Codec configuration box : avcC

NJPW Summer Struggle 2021

Audio
ID : 2
Format : AAC LC
Codec ID : mp4a-40-2
Duration : 2 h 35 min
Bit rate mode : Constant
Bit rate : 99.3 kb/s
Channel(s) : 2 channels
Channel layout : L R
Sampling rate : 44.1 kHz
Frame rate : 43.066 FPS (1024 SPF)
Compression mode : Lossy
Stream size : 110 MiB (5%)
Default : Yes
Alternate group : 1

NJPW Summer Struggle 2021

 

[collapse]

 

 

https://dx-tv.com/

Leave a Reply

Your email address will not be published. Required fields are marked *

This site uses Akismet to reduce spam. Learn how your comment data is processed.