NJPW Summer Struggle 2020 07 31 Day 4

Watch NJPW Summer Struggle 2020 07 31 Day 4 DX-TV

 

NJPW Day 4
 

 NJPW Day 4

 

NJPW Summer Struggle 2020 07 31 Day 4

 

 

 

Complete name : NJPW.2020.07.31.Summer.Struggle.2020.Day.4.JAPANESE.WEB.h264-LATE.mkv
Format : Matroska
Format version : Version 4
File size : 1.93 GiB
Duration : 2 h 22 min
Overall bit rate : 1 932 kb/s

 Summer Struggle 2020 07 31 Day 4

Video
ID : 1
Format : AVC
Duration : 2 h 22 min
Bit rate : 1 830 kb/s
Width : 960 pixels
Height : 540 pixels
Display ratio : 16:9
Frame rate mode : Constant
Frame rate : 30.000 FPS
Color space : YUV
Chroma subsampling : 4:2:0
Bit depth : 8 bits
Scan type : Progressive
Bits/(Pixel*Frame) : 0.118
Stream size : 1.83 GiB (95%)
Default : Yes
Forced : No
Color range : Limited
Color primaries : BT.601 PAL
Transfer characteristics : BT.601

NJPW Summer Struggle 2020 07 31 Day 4

Audio
ID : 2
Format : AAC LC
Format/Info : Advanced
Codec ID : A_AAC-2
Duration : 2 h 22 min
Bit rate : 99.3 kb/s
Channel(s) : 2 channels
Channel layout : L R
Sampling rate : 44.1 kHz
Frame rate : 43.066 FPS (1024 SPF)
Compression mode : Lossy
Stream size : 102 MiB (5%)
Language : English
Default : Yes
Forced : No

Summer Struggle 2020 07 31 Day 4

 

July 26, 2015: Golden Revenge

 

We start by taking you back to G1 Climax 25, and Kota Ibushi’s attempt at his second major tournament of the year. In the spring,

with landmark victories over Tetsuya Naito and Hirooki Goto, Ibushi took the New japan Cup,

and headed into an IWGP Heavyweight Championship match with BULLET CLUB’s AJ Styles. Free NJPW Summer Struggle

His first ever IWGP reign appeared to be within reach as he climbed to the top rope and looked for a Phoenix Splash,

only to be reluctantly distracted on the apron by Kenny Omega.

The momentary hesitation that caused the Golden Star gave Styles enough time to recover,

and catch the Phoenix into a devastating Styles Clash. 

 

NJPW Summer Struggle 2020 07 31 Day 4

 

Watch online

 

 

Server 1

 

 

 

 

watch now

 

 

 

 

Server 2

 

 

 

NJPW Day 4

 

 

 

Server-3

 

 

 

watch now

 

 

 

Uploaded By Site DX-TV.com

 

 

 

Download with premium account Links 

 

 

Keep2Share

 

 

nitroflare.com

 

 

rapidgator.net

 

 

uploadgig.com

 

 

 

dx-tv.com

 

urlfree.net

 98 total views,  4 views today

Leave a Reply

Your email address will not be published. Required fields are marked *

This site uses Akismet to reduce spam. Learn how your comment data is processed.

%d bloggers like this: