NJPW Strong Episode 61 Replay

NJPW Strong Episode 61 2021 10 09 English/ japan Full Show Replay DX-TV

NJPW Strong

 NJPW Strong

 

 

 

Download Links with premium High Speed
 

 


 

Dopapk

 

 

Show Links

 

 

http://shrt10.com/WeE7ez
http://shrt10.com/itzKMKZbK

 

 

 

 

 

Nitroflare

 

 

Show Links

 

 

http://shrt10.com/oMNAN
http://shrt10.com/FSOSMLinO

 

 

 

 

Rapidgator

 

 

Show Links

 

 

http://shrt10.com/RoJmJUQJT
http://shrt10.com/6TKtU

 

 

 

 

 

Uploaded
 

 

 

Show Links

 

 

http://shrt10.com/eapP3
http://shrt10.com/Tai1obC

 

 

 

 

 

 

 

Watch online

 

Server 1

 

 

 

 

NJPW Strong

 

watch now

 

 

 

 

Server-2

 

 

 

 

NJPW Strong

 

watch now

 

 

 

|Server-3

 

 

 

 

NJPW Strong

 

watch now

 

 

Uploaded By Site DX-TV.com

 

 

Open Info Show

 

 

Complete name : NJPW.2021.10.09.Strong.Episode.61.ENGLISH.720p.WEB.h264-LATE.mkv
Format : Matroska
Format version : Version 4
File size : 1.17 GiB
Duration : 1 h 22 min
Overall bit rate : 2 032 kb/s

NJPW Strong

Video
ID : 1
Format : AVC
Codec ID : V_MPEG4/ISO/AVC
Duration : 1 h 22 min
Bit rate : 1 904 kb/s
Width : 1 280 pixels
Height : 720 pixels
Display aspect ratio : 16:9
Frame rate mode : Constant
Frame rate : 30.000 FPS
Color space : YUV
Chroma subsampling : 4:2:0
Bit depth : 8 bits
Scan type : Progressive
Bits/(Pixel*Frame) : 0.069
Stream size : 1.10 GiB (94%)
Forced : No

NJPW Strong

Audio
ID : 2
Format : AAC LC
Format/Info : Advanced
Codec ID : A_AAC-2
Duration : 1 h 22 min
Bit rate : 126 kb/s
Channel(s) : 2 channels
Channel layout : L R
Sampling rate : 44.1 kHz
Frame rate : 43.066 FPS (1024 SPF)
Compression mode : Lossy
Delay relative to video : -23 ms
Stream size : 74.3 MiB (6%)
Default : Yes
Forced : No

Complete name : NJPW.2021.10.09.Strong.Episode.61.JAPANESE.720p.WEB.h264-LATE.mkv
Format : Matroska
Format version : Version 4
File size : 1.17 GiB
Duration : 1 h 22 min
Overall bit rate : 2 032 kb/s

Video
ID : 1
Format : AVC
Format GOP : M=1, N=30
Codec ID : V_MPEG4/ISO/AVC
Duration : 1 h 22 min
Bit rate : 1 904 kb/s
Width : 1 280 pixels
Height : 720 pixels
Display aspect ratio : 16:9
Frame rate mode : Constant
Frame rate : 30.000 FPS
Color space : YUV
Chroma subsampling : 4:2:0
Bit depth : 8 bits
Scan type : Progressive
Bits/(Pixel*Frame) : 0.069
Stream size : 1.10 GiB (94%)
Forced : No

NJPW Strong

Audio
ID : 2
Format : AAC LC
Codec ID : A_AAC-2
Duration : 1 h 22 min
Bit rate : 126 kb/s
Channel(s) : 2 channels
Channel layout : L R
Sampling rate : 44.1 kHz
Frame rate : 43.066 FPS (1024 SPF)
Compression mode : Lossy
Delay relative to video : -23 ms
Stream size : 74.3 MiB (6%)
Default : Yes
Forced : No

 

 

https://dx-tv.com/

 

 

 

 

 

You May Also Like

Leave a Reply

Your email address will not be published. Required fields are marked *

This site uses Akismet to reduce spam. Learn how your comment data is processed.