NJPW Strong Episode 60- 2021 10 02 Free Replay

NJPW Strong Episode 60 2021 10 02 Full Show Replay DX-TV

NJPW Strong Episode 

 NJPW Strong Episode 60

 

 

 

Download Links with premium High Speed
 


Dopapk

 

 

Show Links

 

 

http://shrt10.com/FvNImUfL
http://shrt10.com/4UqHg

 

 

 

 

 

Nitroflare

 

 

Show Links

 

 

http://shrt10.com/Qp11V
http://shrt10.com/oX9asj

 

 

 

 

Rapidgator

 

 

Show Links

 

 

http://shrt10.com/IvOXGPdmc
http://shrt10.com/D2iTvbps

 

 

 

 

Uploaded
 

 

Show Links

 

 

http://shrt10.com/lVlX9JpIN
http://shrt10.com/NAAZaWp

 

 

 

 

 

 

 

Watch NJPW Strong Episode online

 

Server 1

 

 

 

 

NJPW Strong Episode 

 

watch now

 

 

 

 

Server-2

 

 

 

 

NJPW Strong Episode 

 

watch now

 

 

 

|Server-3

 

 

 

 

watch now

 

NJPW Strong  

 

 

Uploaded By Site DX-TV.com

 

 

Open Info Show

 

 

Complete name : NJPW.2021.10.02.Strong. .60.ENGLISH.720p.WEB.h264-LATE.mkv
Format : Matroska
Format version : Version 4
File size : 927 MiB
Duration : 1 h 4 min
Overall bit rate : 2 017 kb/s

NJPW Strong Episode 

Video
ID : 1
Format : AVC
Duration : 1 h 4 min
Bit rate : 1 904 kb/s
Width : 1 280 pixels
Height : 720 pixels
Display aspect ratio : 16:9
Frame rate mode : Constant
Frame rate : 30.000 FPS
Color space : YUV
Chroma subsampling : 4:2:0
Bit depth : 8 bits
Scan type : Progressive
Bits/(Pixel*Frame) : 0.069
Stream size : 876 MiB (94%)
Forced : No

NJPW Strong  

Audio
ID : 2
Format : AAC LC
Format/Info : Advanced Audio
Codec ID : A_AAC-2
Duration : 1 h 4 min
Bit rate : 110 kb/s
Channel(s) : 2 channels
Channel layout : L R
Sampling rate : 44.1 kHz
Frame rate : 43.066 FPS (1024 SPF)
Compression mode : Lossy
Delay relative to video : -23 ms
Stream size : 50.6 MiB (5%)
Default : Yes
Forced : No

NJPW Strong Episode 

Complete name : NJPW.2021.10.02.Strong. .60.JAPANESE.720p.WEB.h264-LATE.mkv
Format : Matroska
Format version : Version 4
File size : 935 MiB
Duration : 1 h 4 min
Overall bit rate : 2 032 kb/s

Video
ID : 1
Format : AVC
Codec ID : V_MPEG4/ISO/AVC
Duration : 1 h 4 min
Bit rate : 1 904 kb/s
Width : 1 280 pixels
Height : 720 pixels
Display aspect ratio : 16:9
Frame rate mode : Constant
Frame rate : 30.000 FPS
Color space : YUV
Chroma subsampling : 4:2:0
Bit depth : 8 bits
Scan type : Progressive
Bits/(Pixel*Frame) : 0.069
Stream size : 876 MiB (94%)
Forced : No

NJPW Strong Episode 

Audio
ID : 2
Format : AAC LC
Format/Info : Advanced
Codec ID : A_AAC-2
Duration : 1 h 4 min
Bit rate : 126 kb/s
Channel(s) : 2 channels
Channel layout : L R
Sampling rate : 44.1 kHz
Frame rate : 43.066 FPS (1024 SPF)
Compression mode : Lossy
Delay relative to video : -23 ms
Stream size : 57.8 MiB (6%)
Default : Yes
Forced : No

 

Format : Matroska
Format version : Version 4
File size : 935 MiB
Duration : 1 h 4 min
Overall bit rate : 2 032 kb/s

NJPW Strong Episode 

Video
ID : 1
Format : AVC
Codec ID : V_MPEG4/ISO/AVC
Duration : 1 h 4 min
Bit rate : 1 904 kb/s
Width : 1 280 pixels
Height : 720 pixels
Display aspect ratio : 16:9
Frame rate mode : Constant
Frame rate : 30.000 FPS
Color space : YUV
Chroma subsampling : 4:2:0
Bit depth : 8 bits
Scan type : Progressive
Bits/(Pixel*Frame) : 0.069
Stream size : 876 MiB (94%)
Forced : No

https://dx-tv.com/

 

 

 

 

 

Leave a Reply

Your email address will not be published. Required fields are marked *

This site uses Akismet to reduce spam. Learn how your comment data is processed.