NJPW Strong Episode 42 English 720p 2021 05 28

NJPW Strong Episode 42 English 720p 2021 05 28 DX-TV

NJPW Strong Episode 42

 NJPW Strong Episode 42

 

 

 

Download Links with premium High Speed


Dopapk

 

 

Show Links

 

http://shrt10.com/qPBA9vKj
http://shrt10.com/QFBgKrzlo

 

[collapse]

 

 

Nitroflare

 

 

Show Links

 

http://shrt10.com/kgmrpO
http://shrt10.com/KlDYk

 

[collapse]

 

 

Rapidgator

 

 

Show Links

 

http://shrt10.com/LWh7Rp
http://shrt10.com/7S1VGOK

 

[collapse]

 

 

Uploaded

 

 

Show Links

 

http://shrt10.com/8hOpiDe
http://shrt10.com/6Ibmdef

 

[collapse]

 

 

Watch online

 

Server 1

 

 

 

 

NJPW Strong Episode 42

 

watch now

 

 

 

 

Server-2

 

 

 

 

NJPW Strong Episode 42

 

watch now

 

 

 

|Server-4

 

 

 

 

NJPW Strong Episode 42

 

watch now

 

 

Uploaded By Site DX-TV.com

 

 

Show Info This Show

 

NJPW Strong Episode 42

Complete name : NJPW.2021.05.28.Strong.Episode.42.ENGLISH.720p.WEB.h264-LATE.mkv
Format : Matroska
Format version : Version 4
File size : 1 004 MiB
Duration : 1 h 9 min
Overall bit rate : 2 032 kb/s

Video
ID : 1
Format : AVC
Format/Info : Advanced Video Codec
Format profile : [email protected]
Format settings : 3 Ref Frames
Format settings, CABAC : No
Format settings, Reference : 3 frames
Format settings, GOP : M=1, N=30
Codec ID : V_MPEG4/ISO/AVC
Duration : 1 h 9 min
Bit rate : 1 904 kb/s
Width : 1 280 pixels
Height : 720 pixels
Display aspect ratio : 16:9
Frame rate mode : Constant
Frame rate : 30.000 FPS
Color space : YUV
Chroma subsampling : 4:2:0
Bit depth : 8 bits
Scan type : Progressive
Bits/(Pixel*Frame) : 0.069
Stream size : 941 MiB (94%)
Forced : No

NJPW Strong EpisodeĀ 

Audio
ID : 2
Format : AAC LC
Format/Info : Advanced Audio
Codec ID : A_AAC-2
Duration : 1 h 9 min
Bit rate : 126 kb/s
Channel(s) : 2 channels
Channel layout : L R
Sampling rate : 44.1 kHz
Frame rate : 43.066 FPS (1024 SPF)
Compression mode : Lossy
Delay relative to video : -23 ms
Stream size : 62.1 MiB (6%)
Language : English
Default : Yes
Forced : No

Audio
ID : 2
Format : AAC LC
Format/Info : Advanced Audio
Codec ID : A_AAC-2
Duration : 1 h 9 min
Bit rate : 126 kb/s
Channel(s) : 2 channels
Channel layout : L R
Sampling rate : 44.1 kHz
Frame rate : 43.066 FPS (1024 SPF)
Compression mode : Lossy
Delay relative to video : -23 ms
Stream size : 62.1 MiB (6%)
Language : English
Default : Yes
Forced : No

Audio
ID : 2
Format : AAC LC
Format/Info : Advanced Audio
Codec ID : A_AAC-2
Duration : 1 h 9 min
Bit rate : 126 kb/s
Channel(s) : 2 channels
Channel layout : L R
Sampling rate : 44.1 kHz
Frame rate : 43.066 FPS (1024 SPF)
Compression mode : Lossy
Delay relative to video : -23 ms
Stream size : 62.1 MiB (6%)
Language : English
Default : Yes
Forced : No

NJPW Strong EpisodeĀ 

Audio
ID : 2
Format : AAC LC
Format/Info : Advanced Audio
Codec ID : A_AAC-2
Duration : 1 h 9 min
Bit rate : 126 kb/s
Channel(s) : 2 channels
Channel layout : L R
Sampling rate : 44.1 kHz
Frame rate : 43.066 FPS (1024 SPF)
Compression mode : Lossy
Delay relative to video : -23 ms
Stream size : 62.1 MiB (6%)
Language : English
Default : Yes
Forced : No

Audio
ID : 2
Format : AAC LC
Format/Info : Advanced Audio
Codec ID : A_AAC-2
Duration : 1 h 9 min
Bit rate : 126 kb/s
Channel(s) : 2 channels
Channel layout : L R
Sampling rate : 44.1 kHz
Frame rate : 43.066 FPS (1024 SPF)
Compression mode : Lossy
Delay relative to video : -23 ms
Stream size : 62.1 MiB (6%)
Language : English
Default : Yes
Forced : No

NJPW Strong EpisodeĀ 

Audio
ID : 2
Format : AAC LC
Format/Info : Advanced Audio
Codec ID : A_AAC-2
Duration : 1 h 9 min
Bit rate : 126 kb/s
Channel(s) : 2 channels
Channel layout : L R
Sampling rate : 44.1 kHz
Frame rate : 43.066 FPS (1024 SPF)
Compression mode : Lossy
Delay relative to video : -23 ms
Stream size : 62.1 MiB (6%)
Language : English
Default : Yes
Forced : No

 

 

[collapse]

 

 

https://dx-tv.com/

Leave a Reply

Your email address will not be published. Required fields are marked *

This site uses Akismet to reduce spam. Learn how your comment data is processed.