NJPW Strong Episode 39 English / Japan

NJPW Strong Episode 39 English / Japan 2021 05 07 DX-TV

NJPW Strong Episode 39

 NJPW Strong Episode 39

 

 

 

Download Links with High Speed


 

Dopapk

 

 

Show Links

 

http://shrt10.com/vvjOeV3V
http://shrt10.com/ehGu1

 

[collapse]

 

 

Nitroflare

 

 

Show Links

 

http://shrt10.com/9e5Zbdg
http://shrt10.com/3w6413uy

 

[collapse]

 

 

Rapidgator

 

 

Show Links

 

http://shrt10.com/UGlqIw4
http://shrt10.com/WL8S334u

 

[collapse]

 

 

Uploaded

 

 

Show Links

 

http://shrt10.com/lg4exFpS
http://shrt10.com/3jpc3O

 

[collapse]

 

 

Watch online

 

Server 1

 

 

 

 

watch now

NJPW Strong Episode 39

 

 

 

 

Server-2

 

 

 

 

watch now

NJPW Strong Episode 39

 

 

 

|Server-3

 

 

 

 

watch now

watch now

 

 

Uploaded By Site DX-TV.com

 

 

Show Info This Show

 

 

Complete name : NJPW.2021.05.07.Strong.Episode.39.ENGLISH.720p.WEB.h264-LATE.mkv
Format : Matroska
Format version : Version 4
File size : 735 MiB
Duration : 50 min 34 s
Overall bit rate : 2 032 kb/s

NJPW Strong Episode 39

Video
ID : 1
Format : AVC
Format/Info : Advanced Video
Duration : 50 min 34 s
Bit rate : 1 904 kb/s
Width : 1 280 pixels
Height : 720 pixels
Display aspect ratio : 16:9
Frame rate mode : Constant
Frame rate : 30.000 FPS
Color space : YUV
Chroma subsampling : 4:2:0
Bit depth : 8 bits
Scan type : Progressive
Bits/(Pixel*Frame) : 0.069
Stream size : 689 MiB (94%)
Forced : No

Audio
ID : 2
Format : AAC LC
Format/Info : Advanced Audio
Codec ID : A_AAC-2
Duration : 50 min 34 s
Bit rate : 126 kb/s
Channel(s) : 2 channels
Channel layout : L R
Sampling rate : 44.1 kHz
Frame rate : 43.066 FPS (1024 SPF)
Compression mode : Lossy
Delay relative to video : -23 ms
Stream size : 45.4 MiB (6%)
Language : English
Default : Yes
Forced : No

NJPW Strong 

Complete name : NJPW.2021.05.07.Strong.Episode.39.JAPANESE.720p.WEB.h264-LATE.mkv
Format : Matroska
Format version : Version 4
File size : 735 MiB
Duration : 50 min 34 s
Overall bit rate : 2 032 kb/s

Video
ID : 1
Format : AVC
Format/Info : Advanced Video C
Duration : 50 min 34 s
Bit rate : 1 904 kb/s
Width : 1 280 pixels
Height : 720 pixels
Display aspect ratio : 16:9
Frame rate mode : Constant
Frame rate : 30.000 FPS
Color space : YUV
Chroma subsampling : 4:2:0
Bit depth : 8 bits
Scan type : Progressive
Bits/(Pixel*Frame) : 0.069
Forced : No

NJPW Strong 

Audio
ID : 2
Format : AAC LC
Format/Info : Advanced Audio
Codec ID : A_AAC-2
Duration : 50 min 34 s
Bit rate : 126 kb/s
Channel(s) : 2 channels
Channel layout : L R
Sampling rate : 44.1 kHz
Frame rate : 43.066 FPS (1024 SPF)
Compression mode : Lossy
Delay relative to video : -23 ms
Stream size : 45.4 MiB (6%)
Language : English
Default : Yes
Forced : No

 

Audio
ID : 2
Format : AAC LC
Format/Info : Advanced Audio
Codec ID : A_AAC-2
Duration : 50 min 34 s
Bit rate : 126 kb/s
Channel(s) : 2 channels
Channel layout : L R
Sampling rate : 44.1 kHz
Frame rate : 43.066 FPS (1024 SPF)
Compression mode : Lossy
Delay relative to video : -23 ms
Stream size : 45.4 MiB (6%)
Language : English
Default : Yes
Forced : No

NJPW Strong 

Audio
ID : 2
Format : AAC LC
Format/Info : Advanced Audio
Codec ID : A_AAC-2
Duration : 50 min 34 s
Bit rate : 126 kb/s
Channel(s) : 2 channels
Channel layout : L R
Sampling rate : 44.1 kHz
Frame rate : 43.066 FPS (1024 SPF)
Compression mode : Lossy
Delay relative to video : -23 ms
Stream size : 45.4 MiB (6%)
Language : English
Default : Yes
Forced : No

 

[collapse]

 

 

https://dx-tv.com/