NJPW Strong Ep8 English 2020 09 25

Watch NJPW Strong Ep8 English 2020 09 25 DX-TV

 

NJPW Strong

 

 

 NJPW Strong

 

NJPW Strong Ep8 English 2020 09 25

 

 

 

[su_expand more_text=”Show More Info” less_text=”Close all Info” height=”30″ text_color=”#000000″ link_color=”#e25f8b” link_style=”button” more_icon=”icon: arrow-down” less_icon=”icon: arrow-up”]

 

3rd match: Danny Limelight vs Barrett Brown

 

Danny Limelight takes on Barrett Brown in the first round of Lion’s Break Crown. Brown is a long time mainstay on the independent scene, and sees this tournament as his ultimate chance to break into the mainstream. With a focused demeanour showing through in recent weeks on STRONG, Brown has declared that he will bring ‘substance over style’ and a greater will to win than anyone in the tournament. Limelight needs to recover from a painful loss to Rocky Romero at Fighting Spirit Unleashed, but lessons learned may see him combine style and substance in equal measure. Who wins out?

NJPW Strong

Complete name : NJPW.2020.09.25.Strong.Episode.8.ENGLISH.720p.WEB.h264-LATE.mkv
Format : Matroska
Format version : Version 4
File size : 694 MiB
Duration : 47 min 45 s
Overall bit rate : 2 031 kb/s

NJPW Strong

Video
ID : 1
Format : AVC
Format/Info : Advanced
Duration : 47 min 45 s
Bit rate : 1 904 kb/s
Width : 1 280 pixels
Height : 720 pixels
Display aspect ratio : 16:9
Frame rate mode : Constant
Frame rate : 30.000 FPS
Color space : YUV
Chroma subsampling : 4:2:0
Bit depth : 8 bits
Scan type : Progressive
Bits/(Pixel*Frame) : 0.069
Stream size : 650 MiB (94%)

NJPW Strong

Audio
ID : 2
Format : AAC LC
Format/Info : Advanced Audio
Codec ID : A_AAC-2
Duration : 47 min 45 s
Bit rate : 125 kb/s
Channel(s) : 2 channels
Channel layout : L R
Sampling rate : 44.1 kHz
Frame rate : 43.066 FPS (1024 SPF)
Compression mode : Lossy
Delay relative to video : -23 ms
Stream size : 42.8 MiB (6%)
Language : English
Default : Yes
Forced : No

 

 

 

NJPW Strong Ep8 English 2020 09 25

 

 

[/su_expand]

 

 

 

Watch online

 

 

[su_expand more_text=”Open Videos Online” less_text=”Close Videos” height=”0″ text_color=”#0859fe” link_color=”#a74a69″ link_style=”button” more_icon=”icon: play” less_icon=”icon: stop”]

 

 

Server 1

 

 

 

 

watch now

 

 

 

 

Server-2

 

 

 

watch now

 

 

 

 

Server-3

 

 

 

NJPW Strong

 

 

 

[/su_expand]
 

 

Uploaded By Site DX-TV.com

 

 

 

 

 

Download Free Links with normal and high Speed [ more 14 hosts ]  

 

[su_expand more_text=”Show Hosts Info” less_text=”Close all Info” height=”30″ text_color=”#000000″ link_color=”#e25f8b” link_style=”button” more_icon=”icon: arrow-down” less_icon=”icon: arrow-up”]

 

NJPW Strong

 

hexupload.net – clicknupload.co – www.multiup.org – uptobox.com – anonfiles.com – userscloud.com –

dropapk.to alfafile.net – ddownload.com – rockfile.co – 1fichier.com – filedown.org – katfile.com – filerio.in

 

 

 

[/su_expand]

 

 

 

 

 

 

Download Links with premium High Speed   

 

 

 

 

Keep2Share

 

 

 

nitroflare.com

 

 

 

rapidgator.net

 

 

 

uploaded.net

 

 

 

uploadgig.com

 

 

 

 

dx-tv.com

 

urlfree.net

Leave a Reply

Your email address will not be published. Required fields are marked *

This site uses Akismet to reduce spam. Learn how your comment data is processed.