NJPW Strong 27 11 2020 English /Japan 720p DX-TV

NJPW Strong 27 11 2020 English /Japan 720p DX-TV

NJPW Strong 27 11 2020

 

 NJPW Strong 27 11 2020

 

[su_expand more_text=”Show More Info” less_text=”Close all Info” height=”30″ text_color=”#000000″ link_color=”#e25f8b” link_style=”button” more_icon=”icon: arrow-down” less_icon=”icon: arrow-up”]

 

name : NJPW.2020.11.27.Strong.Episode.17.ENGLISH.720p.WEB.h264-LATE.mkv
Format : Matroska
Format version : Version 4
File size : 672 MiB
Duration : 46 min 15 s
Overall bit rate : 2 032 kb/s

 Strong 27 11 2020

Video
ID : 1
Format : AVC
Duration : 46 min 14 s
Bit rate : 1 904 kb/s
Width : 1 280 pixels
Height : 720 pixels
aspect ratio : 16:9
Frame rate mode : Constant
Frame rate : 30.000 FPS
Color space : YUV
Chroma subsampling : 4:2:0
Bit depth : 8 bits
Scan type : Progressive
Bits/(Pixel*Frame) : 0.069
Stream size : 630 MiB (94%)

NJPW Strong 27 11 2020

Audio
ID : 2
Format : AAC LC
Format/Info : Advanced Audio
Codec ID : A_AAC-2
Duration : 46 min 15 s
Bit rate : 125 kb/s
Channel(s) : 2 channels
Channel layout : L R
Sampling rate : 44.1 kHz
Frame rate : 43.066 FPS
Compression mode : Lossy
Delay relative to video : -23 ms
Stream size : 41.3 MiB
Language : English
Default : Yes
Forced : No

NJPW Strong 27 11 2020

name : NJPW.2020.11.27.Strong.Episode.17.JAPANESE.720p.WEB.h264-LATE.mkv
Format : Matroska
Format version : Version 4
File size : 672 MiB
Duration : 46 min 15 s
Overall bit rate : 2 032 kb/s

Video
ID : 1
Format : AVC
Duration : 46 min 15 s
Bit rate : 1 904 kb/s
Width : 1 280 pixels
Height : 720 pixels
Display aspect ratio : 16:9
Frame rate mode : Constant
Frame rate : 30.000 FPS
Color space : YUV
Chroma subsampling : 4:2:0
Bit depth : 8 bits
Scan type : Progressive
Bits/(Pixel*Frame) : 0.069
Stream size : 630 MiB (94%)

 Strong 27 11 2020

Audio
ID : 2
Format : AAC LC
Format/Info : Advanced Audio
Codec ID : A_AAC-2
Duration : 46 min 15 s
Bit rate : 125 kb/s
Channel(s) : 2 channels
Channel layout : L R
Sampling rate : 44.1 kHz
Frame rate : 43.066 FPS
Delay relative to video : -23 ms
Stream size : 41.3 MiB (6%)
Language : English
Default : Yes
Forced : No

 

 

[/su_expand]

 

 

Will post and updated all links and watch online replay after end live show 

so stay tuned after over show just reloading post to see all new links

 

 

Watch online

 

Server 1

 

 

 

 

NJPW Strong 27 11 2020

watch now

 

 

 

 

Server-2

 

 

 

 

NJPW Strong 27 11 2020

watch now

 

 

 

 

Uploaded By Site DX-TV.com

NJPW Strong 27 11  

 

Download Free Links with normal and high Speed [ more 14 hosts ]  

 

[su_expand more_text=”Show Hosts Info” less_text=”Close all Info” height=”30″ text_color=”#000000″ link_color=”#e25f8b” link_style=”button” more_icon=”icon: arrow-down” less_icon=”icon: arrow-up”]

 

 

hexupload.net – clicknupload.co – www.multiup.org

– uptobox.com – anonfiles.com – userscloud.com –

dropapk.to alfafile.net – ddownload.com – rockfile.co

– 1fichier.com – filedown.org – katfile.com – filerio.in

 

 

[/su_expand]

 

 

Japan

 

http://shrt10.com/KtTknJN
http://shrt10.com/N1E1yHNfH
http://shrt10.com/3yewrLY
http://shrt10.com/jYukMj
http://shrt10.com/bSMFSW
http://shrt10.com/WS7JrNy
http://shrt10.com/D600T
http://shrt10.com/1rBjYYV

 

ENG

 

 

http://shrt10.com/WEy95K
http://shrt10.com/z3fUq9KUO
http://shrt10.com/rKNOe3Fvs
http://shrt10.com/2sKSEWts3
http://shrt10.com/SkWSY
http://shrt10.com/VDZDnfxHA
http://shrt10.com/DAf9UpfwQ
http://shrt10.com/DjOKf

 

 Strong 27 11 2020

Download Links with premium High Speed   

 

 

 

 

dropapk.to

http://shrt10.com/wozgHy

http://shrt10.com/Ms3jYyh

 

 

nitroflare.com

http://shrt10.com/l1yHagw
http://shrt10.com/FBt67SZE

 

 

rapidgator.net

http://shrt10.com/40YNzTm4D
http://shrt10.com/GY6twwfjE

 

 

uploaded.net

http://shrt10.com/vikaHpT
http://shrt10.com/NL86rNT

 

 

uploadgig.com

http://shrt10.com/SYpAAVQZ
http://shrt10.com/9MtBH

 

https://dx-tv.com/watch-aaw-2018-08-04-jawbreaker-web-ncmp-720p/

Leave a Reply

Your email address will not be published. Required fields are marked *

This site uses Akismet to reduce spam. Learn how your comment data is processed.