NJPW G1 Climax 31 Day 8 2021 10 01 Full Show Replay

NJPW G1 Climax 31 Day 8 2021 10 01 English/ Japan Full Show Replay DX-TV

NJPW G1 Climax 31

 NJPW G1 Climax 31

 

 

 

Download Links with premium High Speed
 


Dopapk

 

 

Show Links

 

 

English

https://shrt10.com/qBJKOYp5
https://shrt10.com/cDLC8s
https://shrt10.com/88GHx

Japan

https://shrt10.com/FWpegD
https://shrt10.com/Fj7BYv

 

 

 

 

 

Nitroflare

 

 

Show Links

 

 

English

https://shrt10.com/eEHmik9Gq
https://shrt10.com/YfzIokyx
https://shrt10.com/OKphiTc

Japan

https://shrt10.com/lk0Rat
https://shrt10.com/Ttlyefe

 

 

 

 

Rapidgator

 

 

Show Links

 

 

English

https://shrt10.com/Ov5Ji8gvy
https://shrt10.com/FnnWmCE
https://shrt10.com/2VYK3zAE

Japan

https://shrt10.com/laRrZ
https://shrt10.com/C5Q1mnO

 

 

 

 

 

Uploaded
 

 

Show Links

 

 

English

https://shrt10.com/mZGhuo
https://shrt10.com/RoqGA
https://shrt10.com/v2SwR0u5B

Japan

https://shrt10.com/hEOEU
https://shrt10.com/0k9Hal

 

 

 

 

 

 

 

Watch online

 

Server 1

 

 

 

 

NJPW G1 Climax 31

 

watch now

 

 

 

 

Server-2

 

 

 

 

watch now

 

NJPW G1 Climax 31

 

 

 

|Server-3

 

 

 

 

watch now

 

NJPW G1 Climax 31

 

 

Uploaded By Site DX-TV.com

 

 

Open Info Show

 

 

Complete name : NJPW G1 Climax 31 Day 8 – 2021 10 01 Japan 720p WEB By DX-TV.com.mp4
Format : MPEG-4
Format profile : Base Media
Codec ID : isom
File size : 4.04 GiB
Duration : 3 h 10 min
Overall bit rate : 3 041 kb/s

Video
ID : 1
Format : AVC
Duration : 3 h 10 min
Bit rate : 2 765 kb/s
Width : 1 280 pixels
Height : 720 pixels
Display aspect ratio : 16:9
Frame rate mode : Variable
Frame rate : 30.000 FPS
Minimum frame rate : 14.925 FPS
Maximum frame rate : 90 000.000 FPS
Color space : YUV
Chroma subsampling : 4:2:0
Bit depth : 8 bits
Scan type : Progressive
Bits/(Pixel*Frame) : 0.100
Stream size : 3.67 GiB (91%)
Codec configuration box : avcC

NJPW G1 Climax 31

Audio
ID : 2
Format : AAC LC
Format/Info : Advanced Audio
Codec ID : mp4a-40-2
Duration : 3 h 10 min
Source duration : 3 h 10 min
Bit rate mode : Constant
Bit rate : 265 kb/s
Channel(s) : 2 channels
Channel layout : L R
Sampling rate : 48.0 kHz
Frame rate : 46.875 FPS (1024 SPF)
Compression mode : Lossy
Stream size : 356 MiB (9%)
Source stream size : 356 MiB (9%)
Default : Yes
Alternate group : 1

Complete name : NJPW G1 Climax 31 Day 8 – 2021 10 01 Japan 480p WEB By DX-TV.com.mp4
Format : MPEG-4
Format profile : Base Media
File size : 1.81 GiB
Duration : 3 h 10 min
Overall bit rate mode : Variable
Overall bit rate : 1 360 kb/s

NJPW G1 Climax 31

Video
ID : 1
Duration : 3 h 10 min
Bit rate : 1 229 kb/s
Width : 864 pixels
Height : 488 pixels
Display aspect ratio : 16:9
Frame rate mode : Variable
Frame rate : 30.000 FPS
Minimum frame rate : 14.925 FPS
Maximum frame rate : 62.500 FPS
Color space : YUV
Chroma subsampling : 4:2:0
Bit depth : 8 bits
Scan type : Progressive
Bits/(Pixel*Frame) : 0.097
Stream size : 1.63 GiB (90%)
Codec configuration box : avcC

Audio
ID : 2
Format : AAC LC
Format/Info : Advanced Audio
Codec ID : mp4a-40-2
Duration : 3 h 10 min
Bit rate mode : Variable
Bit rate : 123 kb/s
Maximum bit rate : 141 kb/s
Channel(s) : 2 channels
Channel layout : L R
Sampling rate : 48.0 kHz
Frame rate : 46.875 FPS (1024 SPF)
Compression mode : Lossy
Stream size : 167 MiB (9%)
Default : Yes
Alternate group : 1

Complete name : NJPW G1 Climax 31 Day 8 – 2021 10 01 English 720p WEB By DX-TV.com.mp4
Format : MPEG-4
Format profile : Base Media
Codec ID : isom
File size : 4.04 GiB
Duration : 3 h 10 min
Overall bit rate : 3 040 kb/s

Video
ID : 1
Format : AVC
Duration : 3 h 10 min
Bit rate : 2 765 kb/s
Width : 1 280 pixels
Height : 720 pixels
Display aspect ratio : 16:9
Frame rate mode : Variable
Frame rate : 30.000 FPS
Minimum frame rate : 14.925 FPS
Maximum frame rate : 90 000.000 FPS
Color space : YUV
Chroma subsampling : 4:2:0
Bit depth : 8 bits
Scan type : Progressive
Bits/(Pixel*Frame) : 0.100
Stream size : 3.68 GiB (91%)
Codec configuration box : avcC

NJPW G1 Climax 31

Audio
ID : 2
Format : AAC LC
Codec ID : mp4a-40-2
Duration : 3 h 10 min
Bit rate mode : Constant
Bit rate : 265 kb/s
Channel(s) : 2 channels
Channel layout : L R
Sampling rate : 48.0 kHz
Frame rate : 46.875 FPS (1024 SPF)
Compression mode : Lossy
Stream size : 357 MiB (9%)
Default : Yes
Alternate group : 1

Complete name : NJPW G1 Climax 31 Day 8 – 2021 10 01 English 480p WEB By DX-TV.com.mp4
Format : MPEG-4
Format profile : Base Media
File size : 1.81 GiB
Duration : 3 h 10 min
Overall bit rate : 1 360 kb/s

Video
ID : 1
Format : AVC
Duration : 3 h 10 min
Bit rate : 1 229 kb/s
Width : 864 pixels
Height : 488 pixels
Display aspect ratio : 16:9
Frame rate mode : Variable
Frame rate : 30.000 FPS
Minimum frame rate : 14.925 FPS
Maximum frame rate : 62.500 FPS
Color space : YUV
Chroma subsampling : 4:2:0
Bit depth : 8 bits
Scan type : Progressive
Bits/(Pixel*Frame) : 0.097
Stream size : 1.63 GiB (90%)
Codec configuration box : avcC

NJPW G1 Climax 31

Audio
ID : 2
Format : AAC LC
Format/Info : Advanced Audio
Codec ID : mp4a-40-2
Duration : 3 h 10 min
Bit rate mode : Constant
Bit rate : 123 kb/s
Channel(s) : 2 channels
Channel layout : L R
Sampling rate : 48.0 kHz
Frame rate : 46.875 FPS (1024 SPF)
Compression mode : Lossy
Stream size : 167 MiB (9%)
Default : Yes
Alternate group : 1

 

 

https://dx-tv.com/

 

 

 

 

 

You May Also Like

Leave a Reply

Your email address will not be published. Required fields are marked *

This site uses Akismet to reduce spam. Learn how your comment data is processed.