NJPW G1 Climax 31 Day 11 2021 Full Show Repaly

NJPW G1 Climax 31 Day 11 2021 10 07 English/ Japan 480p/ 540p/ 720p Full Show Replay DX-TV

NJPW G1 Climax 31

 NJPW G1 Climax 31

 

 

 

Download Links with premium High Speed
 

 


 

Dopapk

 

 

Show Links

 

 

English

 

http://shrt10.com/KsuZgep6
http://shrt10.com/k2RYf

 

Japan

 

http://shrt10.com/UH5B6
http://shrt10.com/sfOzra

 

 

 

 

 

Nitroflare

 

 

Show Links

 

 

English

http://shrt10.com/BZ7qMA4
http://shrt10.com/uNKy42sW
http://shrt10.com/ubQdrgDI

 

Japan

 

http://shrt10.com/aGikr
http://shrt10.com/SSLVpkx
http://shrt10.com/IUDh8

 

 

 

 

Rapidgator

 

 

Show Links

 

 

English

http://shrt10.com/VY15m8Te
http://shrt10.com/jfAO8n
http://shrt10.com/zZLpv

Japan

http://shrt10.com/KZYBEPtmE
http://shrt10.com/cmBIEN
http://shrt10.com/yaEQsBLX

 

 

 

 

 

Uploaded
 

 

 

Show Links

 

 

English

http://shrt10.com/6te1tFBT
http://shrt10.com/nooy0xs
http://shrt10.com/C4re0

 

Japan

http://shrt10.com/Onl9l
http://shrt10.com/Eqaqd
http://shrt10.com/qDU5l

 

 

 

 

 

 

 

Watch online

 

Server 1

 

 

 

 

NJPW G1 Climax 31

watch now

 

 

 

 

Server-2

 

 

 

 

NJPW G1 Climax 31

watch now

 

 

 

|Server-3

 

 

 

 

NJPW G1 Climax 31

watch now

 

 

Uploaded By Site DX-TV.com

 

 

Open Info Show

 

 

Complete name : NJPW G1 Climax 31 Day 11 – 2021 10 07 Japan 720p WEB H264 By DX-TV.com.mp4
Format : MPEG-4
Format profile : Base Media
Codec ID : isom
File size : 3.18 GiB
Duration : 2 h 30 min
Overall bit rate : 3 020 kb/s

NJPW G1 Climax 31

Video
ID : 1
Format : AVC
Duration : 2 h 30 min
Bit rate : 2 748 kb/s
Width : 1 280 pixels
Height : 720 pixels
Display aspect ratio : 16:9
Frame rate mode : Variable
Frame rate : 30.000 FPS
Minimum frame rate : 6.623 FPS
Maximum frame rate : 90 000.000 FPS
Color space : YUV
Chroma subsampling : 4:2:0
Bit depth : 8 bits
Scan type : Progressive
Bits/(Pixel*Frame) : 0.099
Stream size : 2.90 GiB (91%)
Codec configuration box : avcC

NJPW G1 Climax 31

Audio
ID : 2
Format : AAC LC
Format/Info : Advanced Audio
Codec ID : mp4a-40-2
Duration : 2 h 30 min
Bit rate mode : Constant
Bit rate : 265 kb/s
Channel(s) : 2 channels
Channel layout : L R
Sampling rate : 48.0 kHz
Frame rate : 46.875 FPS (1024 SPF)
Compression mode : Lossy
Stream size : 283 MiB (9%)
Default : Yes
Alternate group : 1

Complete name : NJPW G1 Climax 31 Day 11 – 2021 10 07 Japan 540p WEB H264 By DX-TV.com.mp4
Format : MPEG-4
Format profile : Base Media
Codec ID : isom
File size : 2.04 GiB
Duration : 2 h 31 min
Overall bit rate : 1 933 kb/s

Video
ID : 1
Format : AVC
Duration : 2 h 31 min
Bit rate : 1 823 kb/s
Width : 960 pixels
Height : 540 pixels
Display aspect ratio : 16:9
Frame rate mode : Variable
Frame rate : 30.000 FPS
Minimum frame rate : 14.706 FPS
Maximum frame rate : 90 000.000 FPS
Color space : YUV
Chroma subsampling : 4:2:0
Bit depth : 8 bits
Scan type : Progressive
Bits/(Pixel*Frame) : 0.117
Stream size : 1.93 GiB (94%)
Color range : Limited
Color primaries : BT.601 PAL
Transfer characteristics : BT.601
Matrix coefficients : BT.470 System B/G
Codec configuration box : avcC

NJPW G1 Climax 31

Audio
ID : 2
Format : AAC LC
Codec ID : mp4a-40-2
Duration : 2 h 31 min
Bit rate mode : Constant
Bit rate : 99.1 kb/s
Channel(s) : 2 channels
Channel layout : L R
Sampling rate : 44.1 kHz
Frame rate : 43.066 FPS (1024 SPF)
Compression mode : Lossy
Stream size : 107 MiB (5%)
Default : Yes
Alternate group : 1

Complete name : NJPW G1 Climax 31 Day 11 – 2021 10 07 Japan 480p WEB H264 By DX-TV.com.mp4
Format : MPEG-4
Format profile : Base Media
Codec ID : isvc1/mp41)
File size : 1.43 GiB
Duration : 2 h 30 min
Overall bit rate mode : Variable
Overall bit rate : 1 354 kb/s

Video
ID : 1
Format : AVC
Duration : 2 h 30 min
Bit rate : 1 223 kb/s
Width : 864 pixels
Height : 488 pixels
Display aspect ratio : 16:9
Frame rate mode : Variable
Frame rate : 30.000 FPS
Minimum frame rate : 0.317 FPS
Maximum frame rate : 90 000.000 FPS
Color space : YUV
Chroma subsampling : 4:2:0
Bit depth : 8 bits
Scan type : Progressive
Bits/(Pixel*Frame) : 0.097
Stream size : 1.29 GiB (90%)
Codec configuration box : avcC

NJPW G1 Climax 31

Audio
ID : 2
Format : AAC LC
Format/Info : Advanced Audio
Codec ID : mp4a-40-2
Duration : 2 h 30 min
Bit rate mode : Variable
Bit rate : 123 kb/s
Maximum bit rate : 126 kb/s
Channel(s) : 2 channels
Channel layout : L R
Sampling rate : 48.0 kHz
Frame rate : 46.875 FPS (1024 SPF)
Compression mode : Lossy
Stream size : 133 MiB (9%)
Default : Yes
Alternate group : 1

Complete name : NJPW G1 Climax 31 Day 11 – 2021 10 07 English 720p WEB H264 By DX-TV.com.mp4
Format : MPEG-4
Format profile : Base Media
Codec ID : iso41)
File size : 3.19 GiB
Duration : 2 h 31 min
Overall bit rate mode : Variable
Overall bit rate : 3 021 kb/s

Video
ID : 1
Format : AVC
Duration : 2 h 31 min
Bit rate : 2 750 kb/s
Width : 1 280 pixels
Height : 720 pixels
Display aspect ratio : 16:9
Frame rate mode : Variable
Frame rate : 30.000 FPS
Minimum frame rate : 14.925 FPS
Maximum frame rate : 62.500 FPS
Color space : YUV
Chroma subsampling : 4:2:0
Bit depth : 8 bits
Scan type : Progressive
Bits/(Pixel*Frame) : 0.099
Stream size : 2.90 GiB (91%)
Codec configuration box : avcC

NJPW G1 Climax 31

Audio
ID : 2
Format : AAC LC
Codec ID : mp4a-40-2
Duration : 2 h 31 min
Bit rate mode : Variable
Bit rate : 265 kb/s
Maximum bit rate : 286 kb/s
Channel(s) : 2 channels
Channel layout : L R
Sampling rate : 48.0 kHz
Frame rate : 46.875 FPS (1024 SPF)
Compression mode : Lossy
Stream size : 283 MiB (9%)
Default : Yes
Alternate group : 1

Complete name : NJPW G1 Climax 31 Day 11 – 2021 10 07 English 540p WEB H264 By DX-TV.com.mp4
Format : MPEG-4
Format profile : Base Media
File size : 2.05 GiB
Duration : 2 h 31 min
Overall bit rate : 1 933 kb/s

Video
ID : 1
Format : AVC
Duration : 2 h 31 min
Bit rate : 1 823 kb/s
Width : 960 pixels
Height : 540 pixels
Display aspect ratio : 16:9
Frame rate mode : Variable
Frame rate : 30.000 FPS
Minimum frame rate : 14.706 FPS
Maximum frame rate : 90 000.000 FPS
Color space : YUV
Chroma subsampling : 4:2:0
Bit depth : 8 bits
Scan type : Progressive
Bits/(Pixel*Frame) : 0.117
Stream size : 1.93 GiB (94%)
Color range : Limited
Color primaries : BT.601 PAL
Transfer characteristics : BT.601
Matrix coefficients : BT.470 System B/G
Codec configuration box : avcC

NJPW G1 Climax 31

Audio
ID : 2
Format : AAC LC
Codec ID : mp4a-40-2
Duration : 2 h 31 min
Bit rate mode : Constant
Bit rate : 99.6 kb/s
Channel(s) : 2 channels
Channel layout : L R
Sampling rate : 44.1 kHz
Frame rate : 43.066 FPS (1024 SPF)
Compression mode : Lossy
Stream size : 108 MiB (5%)
Default : Yes
Alternate group : 1

Complete name :NJPW G1 Climax 31 Day 11 – 2021 10 07 English 480p WEB H264 By DX-TV.com.mp4
Format : MPEG-4
File size : 1.43 GiB
Duration : 2 h 30 min
Overall bit rate mode : Variable
Overall bit rate : 1 356 kb/s

Video
ID : 1
Format : AVC
Duration : 2 h 30 min
Bit rate : 1 224 kb/s
Width : 864 pixels
Height : 488 pixels
Display aspect ratio : 16:9
Frame rate mode : Variable
Frame rate : 30.000 FPS
Minimum frame rate : 14.925 FPS
Maximum frame rate : 62.500 FPS
Color space : YUV
Chroma subsampling : 4:2:0
Bit depth : 8 bits
Scan type : Progressive
Bits/(Pixel*Frame) : 0.097
Stream size : 1.29 GiB (90%)
Codec configuration box : avcC

NJPW G1 Climax 31

Audio
ID : 2
Format : AAC LC
Codec ID : mp4a-40-2
Duration : 2 h 30 min
Bit rate mode : Variable
Bit rate : 123 kb/s
Maximum bit rate : 134 kb/s
Channel(s) : 2 channels
Channel layout : L R
Sampling rate : 48.0 kHz
Frame rate : 46.875 FPS (1024 SPF)
Compression mode : Lossy
Stream size : 133 MiB (9%)
Default : Yes
Alternate group : 1

 

 

https://dx-tv.com/

 

 

 

 

 

You May Also Like

Leave a Reply

Your email address will not be published. Required fields are marked *

This site uses Akismet to reduce spam. Learn how your comment data is processed.