NJPW G1 Climax 30 Day 5 English 720p 2020 09 27

Watch NJPW G1 Climax 30 Day 5 English 720p 2020 09 27 DX-TV

 

NJPW G1 Climax 30

 

 NJPW G1 Climax 30

 

NJPW G1 Climax 30 Day 5 English 720p 2020 09 27

 

 

Night five of G1 Climax 30 saw action come to Kobe World Hall for the first time in 2020, with Taichi and Jay White ending the night on the top of the table with 6 points while Tomohiro Ishii and Yujiro Takahashi sit at zero.

NJPW G1 Climax 30

The first group match of the night saw Yujiro Takahashi, still looking for his first win, take on Taichi. Yujiro got the jump on Taichi as he made his entrance, but Taichi bailed to the floor and then got revenge with the ringside bell hammer. Dominating in the ring, Taichi managed to talk too much trash when he brought up Yujiro’s tag championship winning past, firing up the Tokyo Pimp who assaulted Taichi inside the ring and out. 

NJPW G1 Climax 30

A rake of the eyes prevented a Miami Shine however, and Taichi landed a Gamengiri in the corner to put Yujiro to the mat. Takahashi bit his way out of a Last Ride attempt, prompting Taichi to go to the eyes as both men went to the depths of their rule breaking arsenal, and thsi time it was Yujiro playing with Taichi’s pride, baiting the Holy Emperor to take a swing, and landing a vicious elbow instead.

NJPW G1 Climax 30

Complete name :NJPW G1 CLIMAX 30 Day 8 2020 10 01 WEB H264 DX-TV.mp4
Format : MPEG-4
Format profile : Base Media
Codec ID : isom
File size : 2.09 GiB
Duration : 2 h 31 min
Overall bit rate : 1 967 kb/s
Writing application : Lavf58.25.100

NJPW G1 Climax 30

Video
ID : 1
Format : AVC
Duration : 2 h 31 min
Bit rate : 1 858 kb/s
Width : 960 pixels
Height : 540 pixels
Display aspect ratio : 16:9
Frame rate mode : Variable
Frame rate : 30.000 FPS
Color space : YUV
Chroma subsampling : 4:2:0
Bit depth : 8 bits
Scan type : Progressive
Bits/(Pixel*Frame) : 0.119
Stream size : 1.97 GiB (94%)
Color range : Limited
Color primaries : BT.601 PAL
Transfer characteristics : BT.601
Matrix coefficients : BT.470 System B/G
Codec configuration box : avcC

G1 Climax 30

Audio
ID : 2
Format : AAC LC
Format/Info : Advanced Audio
Codec ID : mp4a-40-2
Duration : 2 h 31 min
Bit rate mode : Constant
Bit rate : 99.4 kb/s
Channel(s) : 2 channels
Channel layout : L R
Sampling rate : 44.1 kHz
Frame rate : 43.066 FPS (1024 SPF)
Compression mode : Lossy
Stream size : 108 MiB (5%)
Default : Yes
Alternate group : 1

 

 

 

G1 Climax 30 Day 5 English 720p 2020 09 27

 

 

 

 

Watch online

 

 

 

Server 1

 

 

 

 

NJPW G1 Climax 30

 

 

 

 

Server-2

 

 

 

watch now

 

 

 

 

Server-3

 

 

 

NJPW G1 Climax 30

 

 

 

 

Uploaded By Site DX-TV.com

 

 

 

 

Download Free Links with normal and high Speed [ more 15 hosts ]  

 

 

 

http://shrt10.com/py4xVEoMb
http://shrt10.com/9tS3x
http://shrt10.com/HXSUPZ1h
http://shrt10.com/b8WMZ8
http://shrt10.com/zz42NP
http://shrt10.com/VDmIxB2RH
http://shrt10.com/6E2oulvh
http://shrt10.com/RDAnZ
http://shrt10.com/Cx5kOg
http://shrt10.com/OruNbL

 

 

 

 

Download Links with premium High Speed   

 

 

 

 

uploaded.net

 

 

dx-tv.com

 

urlfree.net

Leave a Reply

Your email address will not be published. Required fields are marked *

This site uses Akismet to reduce spam. Learn how your comment data is processed.