NJPW G1 CLIMAX 30 Day 4 2020 09 24 Full Show online

Watch NJPW G1 CLIMAX 30 Day 4 2020 09 24 Full Show online DX-TV

 

G1 CLIMAX 30 Day 4

 

 CLIMAX 30 Day 4
 


 

 

NJPW G1 CLIMAX 30 Day 4 2020 09 24 Full Show online

 

Hokkaido sees second night of B Block action

Tetsuya Naito was victorious in the main event in Hokkai Kita Yell on September 24 as B Block took to the ring for the second night of a Sapporo double header in G1 Climax 30.   now joins Toru Yano and Juice Robinson at the top of B Block with 4 points each, while SANADA, Hiroshi Tanahashi and YOSHI-HASHI linger at zero. 

The first group match saw Hirooki Goto and SANADA attempt to avenge Osaka losses. With shoulder heavily taped after the assault from KENTA at the weekend, there was nonetheless no hesitation from the CHAOS member as he tied up and exchanged holds with SANADA before bowling Cold Skull over with a tackle and hip toss. SANADA misdirected Goto out to the floor though, and took control when Goto swung too aggressively at his opponent and lariated the ring post. 

G1 CLIMAX 30 Day 4

With a shove into the corner, Goto was able to change the flow of the match with a backdrop suplex and left handed bulldog, but SANADA had the edge in mobility, a dropkick followed by a plancha as applause rippled through Hokkai Kita Yell. Back inside, and when Goto attempted Ushigoroshi, SANADA again had the upper hand, escaping and using an O’Connor Roll to get into Skull End, with Goto narrowly making the ropes.

G1 CLIMAX 30 Day 4

Complete name : NJPW G1 CLIMAX 30 Day 4 2020 09 24 WEB H264 DX-TV.mp4
Format : MPEG-4
Format profile : Base Media
Codec ID : isom
File size : 2.19 GiB
Duration : 2 h 39 min
Overall bit rate : 1 960 kb/s
Writing application : Lavf58.25.100

G1 CLIMAX 30 Day 4

Video
ID : 1
Format : AVC
Codec ID/Info : Advanced
Duration : 2 h 39 min
Bit rate : 1 851 kb/s
Width : 960 pixels
Height : 540 pixels
Display aspect ratio : 16:9
Frame rate mode : Variable
Frame rate : 30.000 FPS
Color space : YUV
Chroma subsampling : 4:2:0
Bit depth : 8 bits
Scan type : Progressive
Bits/(Pixel*Frame) : 0.119
Stream size : 2.07 GiB (94%)
Color range : Limited
Color primaries : BT.601 PAL
Transfer characteristics : BT.601
Matrix coefficients : BT.470 System B/G
Codec configuration box : avcC

G1 CLIMAX 30 Day 4

Audio
ID : 2
Format : AAC LC
Format/Info : Advanced Audio
Codec ID : mp4a-40-2
Duration : 2 h 39 min
Bit rate mode : Constant
Bit rate : 99.3 kb/s
Channel(s) : 2 channels
Channel layout : L R
Sampling rate : 44.1 kHz
Frame rate : 43.066 FPS (1024 SPF)
Compression mode : Lossy
Stream size : 114 MiB (5%)
Default : Yes
Alternate group : 1

 

 

 

NJPW G1 CLIMAX 30 Day 4 2020 09 24 Full Show online

 

 

 

 

Watch online

 

 

 

 

 

Server 1

 

 

 

 

watch now

 

 

 

 

Server-2

 

 

 

G1 CLIMAX 30 Day 4

 

 

 

 

Server-3

 

 

 

watch now

 

 

 

 

Uploaded By Site DX-TV.com

 

 

 

 

Download Free Links with normal and high Speed [ more 15 hosts ]  

 

 

 

http://shrt10.com/MJ73nxHy
http://shrt10.com/g1v2EfVr5
http://shrt10.com/EzntRU
http://shrt10.com/DiUQh2wR
http://shrt10.com/A0JXW7TN
http://shrt10.com/Es2A8xX
http://shrt10.com/o29kOOy
http://shrt10.com/sL7nLI
http://shrt10.com/WrXGJ
http://shrt10.com/pTC0DH

 

 

 

 

Download Links with premium High Speed   

 

 

 

 

 

Keep2Share

 

 

 

uploaded.net

 

 

 

nitroflare.com

 

 

 

rapidgator.net

 

 

 

uploadgig.com

 

 

 

 

 

dx-tv.com

 

urlfree.net

Leave a Reply

Your email address will not be published. Required fields are marked *

This site uses Akismet to reduce spam. Learn how your comment data is processed.