NJPW G1 CLIMAX 30 Day 3 2020 09 23 Full Show

Watch NJPW G1 CLIMAX 30 Day 3 2020 09 23 Full Show DX-TV

 

NJPW G1 CLIMAX 30

 

NJPW G1 CLIMAX 30

NJPW G1 CLIMAX 30 Day 3 2020 09 23 Full Show

 

G1 CLIMAX B BLOCK MATCH KOTA IBUSHI [2] VS. JAY WHITE [2]

Kota Ibushi and Jay White had only shared the ring once before their G1 Climax final matchup last year. July 25th, 2015,

they were unsuccessful tag team partners against the Bullet Club team of AJ Styles and Bad Luck Fale.

At that time, Kota Ibushi was still splitting his time between DDT and NJPW and Jay White was still an eager Young Lion with mohawked hair in his simple black trunks,

sprinting to the ring ahead of Ibushi during their entrances. They were unsuccessful as a team,

and then they kept away from each other for four-plus years until last year’s hyper-competitive G1 Climax final which saw Ibushi overcome the Bullet Club antics that brought White to the tournament final last year.

Kota Ibushi looks to begin his tournament this year the same way he ended his G1 last year: with back-to-back victories against now-former IWGP Heavyweight Champions Kazuchika Okada and Jay White, avenging his losses to both at Wrestle Kingdom.

NJPW G1 CLIMAX 30

Jay White, on the other hand, will look to leverage just his most recent one-on-one matchup with Ibushi, their Wrestle Kingdom Double Gold Dash consolation match on January 5th that White was able to win definitively. White’s victory over Ibushi may have served as a turning point in his ability to produce results. He hasn’t lost a singles match since that victory, and even with a long layoff, he returned to Japan with a statement victory over Shingo Takagi to begin this year’s G1.

NJPW G1 CLIMAX 30

Complete name : NJPW G1 CLIMAX 30 Day 3 2020 09 23 WEB H264 DX-TV.mp4
Format : MPEG-4
Format profile : Base Media
Codec ID : isom
File size : 2.06 GiB
Duration : 2 h 30 min
Overall bit rate : 1 959 kb/s
Writing application : Lavf58.25.100

NJPW G1 CLIMAX 30

Video
ID : 1
Format : AVC
Duration : 2 h 30 min
Bit rate : 1 850 kb/s
Width : 960 pixels
Height : 540 pixels
Display aspect ratio : 16:9
Frame rate : 30.000 FPS
frame rate : 14.925 FPS
Color space : YUV
Chroma subsampling : 4:2:0
Bit depth : 8 bits
Scan type : Progressive
Bits/(Pixel*Frame) : 0.119
Stream size : 1.94 GiB (94%)
Color range : Limited
Color primaries : BT.601 PAL
Transfer characteristics : BT.601
Matrix coefficients : BT.470 System B/G
Codec configuration box : avcC

NJPW G1 CLIMAX 30

Audio
ID : 2
Format : AAC LC
Format/Info : Advanced
Codec ID : mp4a-40-2
Duration : 2 h 30 min
Bit rate mode : Constant
Bit rate : 99.3 kb/s
Channel(s) : 2 channels
Channel layout : L R
Sampling rate : 44.1 kHz
Frame rate : 43.066 FPS (1024 SPF)
Compression mode : Lossy
Stream size : 107 MiB (5%)
Default : Yes
Alternate group : 1

 

 G1 CLIMAX 30 Day 3 2020 09 23 Full Show

 

Watch online

 

 

Server 1

 

 

 

 

watch now

 

 

 

 

Server-2

 

 

 

NJPW G1 CLIMAX 30

 

 

 

 

Server-3

 

 

 

watch now

 

 

 

 

Uploaded By Site DX-TV.com

 

 

 

 

Download Free Links with normal and high Speed [ more 15 hosts ]  

 

 

 

 

http://shrt10.com/Kq126
http://shrt10.com/zmcCZCm
http://shrt10.com/80VOWV
http://shrt10.com/0safO
http://shrt10.com/MzaL0DeW
http://shrt10.com/gVSmGYs
http://shrt10.com/4CEZyMZkD
http://shrt10.com/t4Vy2
http://shrt10.com/pyTBQQGd
http://shrt10.com/E39hG
http://shrt10.com/s0oMDvLWj

 

 

 

Download Links with premium High Speed   

 

 

 

 

 

Keep2Share

 

 

 

uploaded.net

 

 

 

nitroflare.com

 

 

 

rapidgator.net

 

 

 

uploadgig.com

 

 

 

 

 

dx-tv.com

 

urlfree.net

One thought on “NJPW G1 CLIMAX 30 Day 3 2020 09 23 Full Show

Leave a Reply

Your email address will not be published. Required fields are marked *

This site uses Akismet to reduce spam. Learn how your comment data is processed.

%d bloggers like this: