NJPW G1 CLIMAX 30 Day 1 Full Show Free 2020 09 19

Watch NJPW G1 CLIMAX 30 2020 09 19 Day 1 Japanese DX-TV

 

G1 CLIMAX 30 Day 1 Full Show Free

 

G1 CLIMAX 30 Day 1 Full Show Free

NJPW G1 CLIMAX 30 Day 1 Full Show Free 2020 09 19

 

 

 

[su_expand more_text=”Show More Info” less_text=”Close all Info” height=”30″ text_color=”#000000″ link_color=”#e25f8b” link_style=”button” more_icon=”icon: arrow-down” less_icon=”icon: arrow-up”]

 

G1 CLIMAX 30 Day 1 Full Show Free

 

The matches for the G1 Climax are as follows!

 

A Block

Will Ospreay vs. Yujiro Takahashi
Ospreay hit the Stormbreaker for not the victory. Afterwards, he got on the microphone and talked about how he has nothing to fear because he is Will Ospreay.

Stick to the flips, Will. Ospreay 2 points, Yujiro 0 points.

Jeff Cobb vs. Taichi

Cobb tried to pick Taichi up for the Tour of the Islands, but Taichi slipped out of it and delivered a backdrop driver as the crowd swelled with applause.

He finally was able to lift Jeff Cobb for the Black Mephisto and make it on the G1 board. Taichi 2 points, Cobb 0 points

 

Tomohiro Ishii vs. Minoru Suzuki

They traded headbutts before Ishii lifted Suzuki and hit a reverse piledriver! In a last-ditch effort, Suzuki hit a fast Gotch-style piledriver for the win! Suzuki 2 points, Ishii 0 points.

G1 CLIMAX 30 Day 1 Full Show Free

Shingo Takagi vs. Jay White

Shingo hit the Pumping Bomber and the Last of the Dragon, but 8Jay was on Shingo’s shoulders, he kicked the referee so there was no one to count the pinfall.

Jay hit a low blow followed by the Blade Runner when the referee made it back in the ring. Jay 2 points, Shingo 0 points

G1 CLIMAX 30 Day 1   

Kazuchika Okada vs. Kota Ibushi

Ibushi avoided a Woo dropkick at the 20-minute mark. Ibushi blocked a spinning Rainmaker with a high kick. Okada blocked a Kamigoye and hit two dropkicks.

Ibushi blocked another Rainmaker attempt and hit a Bomaye. He followed with an immediate Kamigoye and pinned Okada. Ibushi 2 points, Okada 0 points

 

Kota Ibushi 2 points (1-0)
Jay White 2 points (1-0)
Minoru Suzuki 2 points (1-0)
Taichi 2 points (1-0)
Will Ospreay 2 points (1-0)
Yujiro Takahashi 0 points (0-1)
Jeff Cobb 0 points (0-1)
Tomohiro Ishii 0 points (0-1)
Shingo Takagi 0 points (0-1)
Kazuchika Okada 0 points (0-1)

 

G1 CLIMAX 30 Day 1 Full Show Free

Complete name : NJPW G1 CLIMAX 30 2020 09 19 Day 1 WEB H264 DX-TV.mp4
Format : MPEG-4
Format profile : Base Media
Codec ID : isom
File size : 2.03 GiB
Duration : 2 h 28 min
Overall bit rate : 1 958 kb/s
Writing application : Lavf58

G1 CLIMAX 30 Day 1 Full Show Free

Video
ID : 1
Format : AVC
Duration : 2 h 28 min
Bit rate : 1 849 kb/s
Width : 960 pixels
Height : 540 pixels
Display aspect ratio : 16:9
Frame rate mode : Variable
Frame rate : 30.000 FPS
Color space : YUV
Chroma subsampling : 4:2:0
Bit depth : 8 bits
Scan type : Progressive
Bits/(Pixel*Frame) : 0.119
Stream size : 1.91 GiB (94%)
Color range : Limited
Color primaries : BT.601 PAL
Transfer characteristics : BT.601
Matrix coefficients : BT.470 System B/G
Codec configuration box : avcC

G1 CLIMAX 30 Day 1 Full Show Free

Audio
ID : 2
Format : AAC LC
Format/Info : Advanced
Codec ID : mp4a-40-2
Duration : 2 h 28 min
Bit rate mode : Constant
Bit rate : 99.4 kb/s
Channel(s) : 2 channels
Channel layout : L R
Sampling rate : 44.1 kHz
Frame rate : 43.066 FPS (1024 SPF)
Compression mode : Lossy
Stream size : 105 MiB (5%)
Default : Yes
Alternate group : 1

 

 

 

NJPW CLIMAX 30 Day 1 Full Show Free 2020 09 19

 

 

[/su_expand]

 

 

 

Watch online

 

 

 

 

 

Server 1

 

 

 

 

watch now

 

 

 

 

Server-2

 

 

 

NJPW G1 CLIMAX 30 Day 1 Full Show Free

 

 

 

 

Server-3

 

 

 

watch now

 

 

 

 

Uploaded By Site DX-TV.com

 

 

 

 

Download Free Links with normal and high Speed [ more 15 hosts ]  

 

[su_expand more_text=”Show Hosts Info” less_text=”Close all Info” height=”30″ text_color=”#000000″ link_color=”#e25f8b” link_style=”button” more_icon=”icon: arrow-down” less_icon=”icon: arrow-up”]

 

G1 CLIMAX 30 Day 1 Full Show Free

hexupload.net – clicknupload.co – www.multiup.org – uptobox.com – anonfiles.com – userscloud.com –

dropapk.to alfafile.net – ddownload.com – rockfile.co – 1fichier.com – filedown.org – katfile.com – filerio.in

 

 

[/su_expand]

 

 

http://shrt10.com/1yRMbTs1

http://shrt10.com/rmagBR

http://shrt10.com/efB3yVw

http://shrt10.com/gz8M9CL

http://shrt10.com/s5vhbM2

http://shrt10.com/P68Aas1

http://shrt10.com/OwMY0f7g

http://shrt10.com/az41pn

http://shrt10.com/NI3nt4my

http://shrt10.com/SNjjI

http://shrt10.com/7tOcG

 

 

 

 

Download Links with premium High Speed   

 

 

 

 

 

Keep2Share

 

 

 

uploaded.net

 

 

nitroflare.com

 

 

 

rapidgator.net

 

 

 

uploadgig.com

 

 

 

 

 

dx-tv.com

 

urlfree.net

Leave a Reply

Your email address will not be published. Required fields are marked *

This site uses Akismet to reduce spam. Learn how your comment data is processed.