NJPW English Day 4 Road to Wrestle Grand Slam 2021 05 26

NJPW English Day 4 Road to Wrestle Grand Slam 2021 05 26 DX-TV

NJPW English Day 4

 NJPW English Day 4

 

 

 

Download Links with High Speed


 

Dopapk

 

 

Show Links

 

http://shrt10.com/DAAanuG57

 

[collapse]

 

 

Nitroflare

 

 

Show Links

 

http://shrt10.com/D2RnVHs

 

[collapse]

 

 

Rapidgator

 

 

Show Links

 

http://shrt10.com/DvlD5E

 

[collapse]

 

 

Uploaded

 

 

Show Links

 

http://shrt10.com/z7iK4yZJ

 

[collapse]

 

 

Watch online

 

Server 1

 

 

 

 

NJPW English Day 4

 

 

 

 

Server-2

 

 

 

 

watch now

 

 

 

|Server-4

 

 

 

 

watch now

 

 

Uploaded By Site DX-TV.com

 

 

Show Info This Show

 

NJPW English Day 4

Complete name : NJPW.2021.05.26.Road.to.Wrestle.Grand.Slam.Day.4.ENGLISH.720p.WEB.h264-LATE.mkv
Format : Matroska
Format version : Version 4
File size : 1.77 GiB
Duration : 2 h 4 min
Overall bit rate : 2 032 kb/s

Video
ID : 1
Format : AVC
Format/Info : Advanced Video
Duration : 2 h 4 min
Bit rate : 1 904 kb/s
Width : 1 280 pixels
Height : 720 pixels
Display aspect ratio : 16:9
Frame rate mode : Constant
Frame rate : 30.000 FPS
Color space : YUV
Chroma subsampling : 4:2:0
Bit depth : 8 bits
Scan type : Progressive
Bits/(Pixel*Frame) : 0.069
Stream size : 1.66 GiB (94%)

NJPW English Day 4

Audio
ID : 2
Format : AAC LC
Format/Info : Advanced Audio
Codec ID : A_AAC-2
Duration : 2 h 4 min
Bit rate : 125 kb/s
Channel(s) : 2 channels
Channel layout : L R
Sampling rate : 44.1 kHz
Frame rate : 43.066 FPS
Compression mode : Lossy
Delay relative to video : -23 ms
Stream size : 112 MiB (6%)
Language : English
Default : Yes
Forced : No

Audio
ID : 2
Format : AAC LC
Format/Info : Advanced Audio
Codec ID : A_AAC-2
Duration : 2 h 4 min
Bit rate : 125 kb/s
Channel(s) : 2 channels
Channel layout : L R
Sampling rate : 44.1 kHz
Frame rate : 43.066 FPS
Compression mode : Lossy
Delay relative to video : -23 ms
Stream size : 112 MiB (6%)
Language : English
Default : Yes
Forced : No

NJPW English 

Audio
ID : 2
Format : AAC LC
Format/Info : Advanced Audio
Codec ID : A_AAC-2
Duration : 2 h 4 min
Bit rate : 125 kb/s
Channel(s) : 2 channels
Channel layout : L R
Sampling rate : 44.1 kHz
Frame rate : 43.066 FPS
Compression mode : Lossy
Delay relative to video : -23 ms
Stream size : 112 MiB (6%)
Language : English
Default : Yes
Forced : No

Audio
ID : 2
Format : AAC LC
Format/Info : Advanced Audio
Codec ID : A_AAC-2
Duration : 2 h 4 min
Bit rate : 125 kb/s
Channel(s) : 2 channels
Channel layout : L R
Sampling rate : 44.1 kHz
Frame rate : 43.066 FPS
Compression mode : Lossy
Delay relative to video : -23 ms
Stream size : 112 MiB (6%)
Language : English
Default : Yes
Forced : No

NJPW English 

Audio
ID : 2
Format : AAC LC
Format/Info : Advanced Audio
Codec ID : A_AAC-2
Duration : 2 h 4 min
Bit rate : 125 kb/s
Channel(s) : 2 channels
Channel layout : L R
Sampling rate : 44.1 kHz
Frame rate : 43.066 FPS
Compression mode : Lossy
Delay relative to video : -23 ms
Stream size : 112 MiB (6%)
Language : English
Default : Yes
Forced : No

 

NJPW English 

[collapse]

 

 

https://dx-tv.com/

Leave a Reply

Your email address will not be published. Required fields are marked *

This site uses Akismet to reduce spam. Learn how your comment data is processed.