NJPW English Day 11 G1 Climax 30 2020 10 07 720p

Watch NJPW English Day 11 G1 Climax 30 2020 10 07 720p DX-TV

 

NJPW English Day 11 G1 Climax 30

 

NJPW English Day 11 G1 Climax 30
 


 

 

NJPW English Day 11 G1 Climax 30 2020 10 07 720p

 

 

 
Complete name : NJPW.2020.10.07.G1.Climax.30.Day.11.ENGLISH.720p.WEB.h264-LATE.mkv
Format : Matroska
Format version : Version 4
File size : 2.02 GiB
Duration : 2 h 22 min
Overall bit rate : 2 032 kb/s

NJPW English Day 11 G1 Climax 30

Video
ID : 1
Format : AVC
Codec ID : V_MPEG4/ISO/AVC
Duration : 2 h 22 min
Bit rate : 1 904 kb/s
Width : 1 280 pixels
Height : 720 pixels
Display aspect ratio : 16:9
 rate mode : Constant
Frame rate : 30.000 FPS
Color space : YUV
Chroma subsampling : 4:2:0
Bit depth : 8 bits
Scan type : Progressive
Bits/(Pixel*Frame) : 0.069
Stream size : 1.89 GiB (94%)

NJPW English Day 11 G1 Climax 30

Audio
ID : 2
Format : AAC LC
Format/Info : Advanced Audio
Codec ID : A_AAC-2
Duration : 2 h 22 min
Bit rate : 125 kb/s
Channel(s) : 2 channels
Channel layout : L R
Sampling rate : 44.1 kHz
Frame rate : 43.066 FPS (1024 SPF)
Compression mode : Lossy
Delay relative to video : -23 ms
Stream size : 128 MiB (6%)
Language : English
Default : Yes
Forced : No

NJPW English Day 11 G1 Climax 30

Taichi (3-2) vs Jay White (3-2)

Singles record: 1-0 White (2019 G1)

 

Taichi and Jay White first faced off one on one in the 2019 G1, with very little prior track record to go on. To date, the two have only shared a ring three times.

but the ever vigilant Switchblade has certainly kept his eye on the Holy Emperor. Admitting that he ‘likes the way (Taichi) does things’, White has a grudging admiration for Taichi, but has similarly admitted that this won’t make a difference in the match result. 

 English Day 11 G1 Climax 30

Nor most likely, in the match layout. White has consistently employed Gedo en route to his three wins and six points thus far, and we can likely expect Jay’s manager to come in useful again tonight; after all, an inch given to Taichi will result in a mile being taken when it comes to rules being bent.

Then again, Gedo’s interference only backfired Monday in Takamatsu, when White’s manager was physically hurled at his charge on the way to an upset for Jeff Cobb.

 English Day 11 G1 Climax 30

Taichi was (mostly) straightforward in his approach against Tomohiro Ishii, but after a hard fought and mostly clean bout Monday, fell short.

Two days later, it could be a question of who can cheat more effectively when it comes to determining who leaves Hiroshima with two extra points. 

 

NJPW English Day 11 G1 Climax 30 2020 10 07 720p

 

 

 

 

Watch online

 

 

 

 

 

Server 1

 

 

 

 

watch now

 

 

 

 

Server-2

 

 

 

watch now

 

 

 

 

Server-3

 

 

 

NJPW English Day 11 G1 Climax 30

 

 

 

 

Uploaded By Site DX-TV.com

 

 

 

 

Download Free Links with normal and high Speed [ more 14 hosts ]  

 

 

 

http://shrt10.com/ubPshx
http://shrt10.com/Utqt1
http://shrt10.com/nBcNfC
http://shrt10.com/GWTbcbTz4
http://shrt10.com/75JhjV2
http://shrt10.com/YXBPUCn8Z
http://shrt10.com/Ih1ged
http://shrt10.com/3icBTl
http://shrt10.com/M7K1R0
http://shrt10.com/W9OuGV1

 

 

 

Download Links with premium High Speed   

 

 

 

 

dropapk.to

 

 

 

nitroflare.com

 

 

 

rapidgator.net

 

 

 

uploaded.net

 

 

 

uploadgig.com

 

 

 

 

 

dx-tv.com

 

urlfree.net

Leave a Reply

Your email address will not be published. Required fields are marked *

This site uses Akismet to reduce spam. Learn how your comment data is processed.