NJPW Day 6 New Japan Cup 2020 07 01 Free Online

Watch NJPW Day 6 New Japan Cup 2020 07 01 Free Online DX-TV

 

NJPW Day 6

 

 

NJPW Day 6

 

 

NJPW Day 6 New Japan Cup 2020 07 01 Free Online

 

Complete name : NJPW New Japan Cup 1 July 2020 Day 6 WEB h264 DX-TV.COM.mp4
Format : MPEG-4
Format profile : Base Media
Codec ID : isom NJPW Day 6
File size : 1.74 GiB
Duration : 2 h 7 min
Overall bit rate : 1 951 kb/s
Writing application : Lavf58.25.100

NJPW Day 6 New Japan Cup 2020 07 01 Free Online

Video
ID : 1
Format : AVC
Format/Info : Advanced Video Codec
tprofile : Main@L3.1
Format settings : NJPW Day 6 / 4 Ref Frames
settings, CABAC : Yes
Format settings, Reference : 4 frames
NJPW Day 6 settings, GOP : 
Codec ID : avc1
Codec ID/Info : Advanced Video Coding
Duration : 2 h 7 min
Bit rate : 1 842 kb/s
Width : 960 pixels
Height : 540 pixels
Display aspect ratio : 16:9
Frame rate mode : Variable
Frame rate : 30.000 FPS
NJPW Day 6 frame rate : 14.925 FPS
Maximum frame rate : 90 000.000 FPS
Color space : YUV
Chroma subsampling : 4:2:0
Bit depth : 8 bits
Scan type : Progressive
Bits/(Pixel*Frame) : 0.118
Stream size : 1.65 GiB (94%)
Color range : Limited
Color primaries : BT.601 PAL
Transfer NJPW Day 6 : BT.601
Matrix coefficients : BT.470 System B/G
Codec configuration box : avcC

NJPW Day 6 New Japan Cup 2020 07 01 Free Online

Audio
ID : 2
Format : AAC LC
Format/Info : NJPW Day 6 Complexity
Codec ID : mp4a-40-2
Duration : 2 h 7 min
Bit rate mode : Constant
Bit rate : 99.5 kb/s
Channel(s) : 2 channels
Channel layout : L R
Sampling rate : 44.1 kHz
Frame rate : 43.066 FPS (1024 SPF)
NJPW Day 6 mode : Lossy
Stream size : 91.0 MiB (5%)
Default : Yes
Alternate group : 1

 

Ace’s HIGH 10: The Journey There

 

Ace’s HIGH 11 Dojo Life Wednesday, July 8

Can you elaborate on that Tanahashi: Well, I’d always planned on dropping

out of university as soon as I got into the Dojo, but Riki Choshu 

pulled me aside and said ‘you don’t know what will happen in the future;

–You were the only one of the five to pass the tryout that had to wait to get in

 

NJPW Day 6 New Japan Cup 2020 07 01 Free Online

 

Watch online

 

 

Server 1

 

 

 

 

watch now

 

 

 

 

Server 2

 

 

 

watch now

 

 

 

Server-3

 

 

 

NJPW Day 6

 

 

 

Uploaded By Site DX-TV.com

 

 

 

Download with premium account Links 

 

 

Keep2Share

 

 

nitroflare.com

 

 

rapidgator.net

 

 

uploadgig.com

 

 

 

dx-tv.com

 

urlfree.net

You May Also Like