NJPW Day 5 G1 Climax 30 Full Show Online 2020 09 27

Watch NJPW Day 5 G1 Climax 30 Full Show Online 2020 09 27 DX-TV

 

NJPW Day 5 G1 Climax 30 

 

 WWE RAW

NJPW Day 5 G1 Climax 30 Full Show Online 2020 09 27

 

 

 

Will Ospreay (2-0) vs Shingo Takagi (0-2)

Keeping on the theme of gaijins dominating the tournament thus far, the next match for the A Block pits the undefeated Will Ospreay against the winless Shingo Takagi.

Taking losses to Jay White and Jeff Cobb already, Takagi’s road to winning the A Block won’t be an easy one.

But the junior heavyweight certainly won’t be deterred especially as he takes on old rival and the man who gave him his first-ever loss in NJPW, Ospreay. Making his NJPW return just in time for the G1 Climax, his second of his career,

NJPW Day 5 G1 Climax 30 

Ospreay has shown every bit the fire and skill he has brought to the table throughout his time in Japan.

From a junior heavyweight standout to making the move up to heavyweight, Ospreay has rarely faltered in the ring.

This much was made clear last year when he competed in both the G1 and Best of the Super Juniors, a tournament he won by last defeating Takagi. Out for revenge,

will Takagi get his pound of flesh? Or will it be Ospreay who breaks from the pack to take a 3-0 tournament lead?

NJPW Day 5 G1 Climax 30 

Complete name : NJPW.2020.09.27.G1.Climax.30.Day.5.JAPANESE.WEB.h264-LATE.mkv
Format : Matroska
Format version : Version 4
File size : 2.18 GiB
Duration : 2 h 40 min
Overall bit rate : 1 950 kb/s

NJPW Day 5 G1 Climax 30 

ID : 1
Format : AVC
Codec ID : V_MPEG4/ 
Duration : 2 h 40 min
Bit rate : 1 848 kb/s
Width : 960 pixels
Height : 540 pixels
Display aspect ratio : 16:9
Frame rate mode : Constant
Frame rate : 30.000 FPS
Color space : YUV
Chroma subsampling : 4:2:0
Bit depth : 8 bits
Scan type : Progressive
Bits/(Pixel*Frame) : 0.119
Stream size : 2.07 GiB (95%)
Default : Yes
Forced : No
Color range : Limited
Color primaries : BT.601 PAL
Transfer characteristics : BT.601
Matrix coefficients : BT.470

NJPW Day 5 G1 Climax 30 

Audio
ID : 2
Format : AAC LC
Format/Info : Advanced 
Codec ID : A_AAC-2
Duration : 2 h 40 min
Bit rate : 99.9 kb/s
Channel(s) : 2 channels
Channel layout : L R
Sampling rate : 44.1 kHz
Frame rate : 43.066 FPS (1024 SPF)
Compression mode : Lossy
Stream size : 114 MiB (5%)
Language : English
Default : Yes
Forced : No

 

 

 

Day 5 G1 Climax 30 Full Show Online 2020 09 27

 

 

 

 

Watch online

 

 

 

 

 

Server 1

 

 

 

 

NJPW Day 5 G1 Climax 30 

 

 

 

 

Server-2

 

 

 

watch now

 

 

 

 

Server-3

 

 

 

NJPW Day 5 G1 Climax 30 

 

 

 

 

Uploaded By Site DX-TV.com

 

 

 

 

Download Free Links with normal and high Speed [ more 15 hosts ]  

 

 

 

http://shrt10.com/RrCeKk2
http://shrt10.com/yCpIsrKy
http://shrt10.com/1lmGYW
http://shrt10.com/tg4v3
http://shrt10.com/LxAAEBd5
http://shrt10.com/fUHeuoa
http://shrt10.com/DXZGWHu7
http://shrt10.com/aMLlm9F
http://shrt10.com/RU8wPRM
http://shrt10.com/kpJYTb2FT

 

 

 

 

Download Links with premium High Speed   

 

 

 

 

 

Keep2Share

 

 

 

nitroflare.com

 

 

 

rapidgator.net

 

 

 

uploaded.net

 

 

 

uploadgig.com

 

 

 

 

 

dx-tv.com

 

urlfree.net

Leave a Reply

Your email address will not be published. Required fields are marked *

This site uses Akismet to reduce spam. Learn how your comment data is processed.