NJPW Day 2 ENG 18 11 2020 Best Of The Super Jr 27 720p

Watch NJPW Day 2 ENG 18 11 2020 Best Of The Super Jr 27 720p DX-TV

NJPW Best Of The Super Jr 27 Day 2

 

 NJPW Best Of The Super Jr 27 Day 2

 

NJPW Day 2 ENG 18 11 2020 Best Of The Super Jr 27 720p

 

 

[su_expand more_text=”Show More Info” less_text=”Close all Info” height=”30″ text_color=”#000000″ link_color=”#e25f8b” link_style=”button” more_icon=”icon: arrow-down” less_icon=”icon: arrow-up”]
 

Complete name : NJPW.2020.11.18.Best.Of.The.Super.Jr.27.Day.2.ENGLISH.720p.WEB.h264-LATE.mkv
Format : Matroska
Format version : Version 4
File size : 1.83 GiB
Duration : 2 h 9 min
Overall bit rate : 2 032 kb/s

NJPW Best Of The Super Jr 27 Day 2

Video
ID : 1
Format : AVC
Duration : 2 h 9 min
Bit rate : 1 904 kb/s
Width : 1 280 pixels
Height : 720 pixels
Display aspect ratio : 16:9
Frame rate mode : Constant
Frame rate : 30.000 FPS
Color space : YUV
Chroma subsampling : 4:2:0
Bit depth : 8 bits
Scan type : Progressive
Bits/(Pixel*Frame) : 0.069
Stream size : 1.72 GiB

NJPW Best Of The Super Jr 27 Day 2

Audio
ID : 2
Format : AAC LC
Format/Info : Advanced
Codec ID : A_AAC-2
Duration : 2 h 9 min
Bit rate : 125 kb/s
Channel(s) : 2 channels
Channel layout : L R
Sampling rate : 44.1 kHz
Frame rate : 43.066 FPS
Compression mode : Lossy
Delay relative to video : -23 ms
Stream size : 116 MiB
Language : English
Default : Yes
Forced : No

NJPW Best Of The Super Jr 27 Day 2

THE EMPIRE (Jeff Cobb & Great-O-Khan) (1-1) vs BULLET CLUB (Bad Luck Fale & Chase Owens) (0-2)

Three days after a flash roll-up from Hirooki Goto cost he and Jeff Cobb.

Great-O-Khan will be hungry for revenge as THE EMPIRE faces BULLET CLUB in the second match of the night.

On both sides a combination of power and tactical awareness make for.

a difficult match to call, and one of the most physical on the night’s card. 

NJPW Best Of The Super Jr 27 Day 2

1st Match: Tomoaki Honma & Satoshi Kojima vs Yuji Nagata & Yota Tsuji

24 hours removed from Gabriel Kidd being the Young Lion apprentice to Yuji Nagata, Yota Tsuji takes on the role in Korakuen Hall.

Will he be taught more rough lessons, or surprising his masters with the benefit of his recent experiences?

 

NJPW Day 2 ENG 18 11 2020 Best Of The Super Jr 27 720p

 

 

[/su_expand]

 

 

Watch online

 

 

Server 1

 

 

 

 

 

 

 

Server-2

 

 

 

 

 

 

NJPW Best Of The Super Jr 27 Day 2

Uploaded By Site DX-TV.com

 

Download Links with premium High Speed   

 

 

 

 

dropapk.to

 

 

 

nitroflare.com

 

 

 

rapidgator.net

 

 

 

uploaded.net

 

 

 

uploadgig.com

 

 

 

 

 

dx-tv.com

 

urlfree.net

You May Also Like

Leave a Reply

Your email address will not be published. Required fields are marked *

This site uses Akismet to reduce spam. Learn how your comment data is processed.