NJPW Day 17 G1 CLIMAX 30 2020 10 16 Full Show

Watch NJPW Day 17 G1 CLIMAX 30 2020 10 16 Full Show DX-TV

 

 
NJPW Day 17 G1 CLIMAX 30

 

G1 CLIMAX 30 Day 17
 


 

 

NJPW Day 17 G1 CLIMAX 30 2020 10 16 Full Show

 

 

 

 

Complete name : NJPW Day 17 G1 CLIMAX 30 2020 10 16.mp4
Format : MPEG-4
Format profile : Base Media
Codec ID : isom
File size : 2.22 GiB
Duration : 2 h 44 min
Overall bit rate : 1 938 kb/s
Writing application : Lavf58.25.100

NJPW Day 17 G1 CLIMAX 30

Video
ID : 1
Format : AVC
Duration : 2 h 44 min
Bit rate : 1 828 kb/s
Width : 960 pixels
Height : 540 pixels
Display aspect ratio : 16:9
Frame rate mode : Variable
Frame rate : 30.000 FPS
Color space : YUV
Chroma : 4:2:0
Bit depth : 8 bits
Scan type : Progressive
Bits/(Pixel*Frame) : 0.118
Stream size : 2.10 GiB (94%)
Color range : Limited
Color primaries : BT.601 PAL
Transfer characteristics : BT.601
Matrix coefficients : BT.470
Codec configuration box : avcC

NJPW Day 17 G1 CLIMAX 30

Audio
ID : 2
Format : AAC LC
Format/Info : Advanced Audio
Codec ID : mp4a-40-2
Duration : 2 h 44 min
Bit rate mode : Constant
Bit rate : 99.6 kb/s
Channel(s) : 2 channels
Channel layout : L R
Sampling rate : 44.1 kHz
Frame rate : 43.066 FPS (1024 SPF)
Compression mode : Lossy
Stream size : 117 MiB (5%)
Default : Yes
Alternate group : 1

 Day 17 G1 CLIMAX 30

fore the G1 tournament, White was completely confident about his encounter with the six point scoring Ishii.

‘All he wants to do is stand and trade strikes,’ the Switchblade commented, ‘I’m smarter than that’.

Certainly smarts, and assists from Gedo has taken Jay to where he is now, and should pit him as a heavy favorite.

Yet Ishii thrives in this kind of an environment, and more importantly, has won their only singles encounter to date.

neutralizing both tactical edges and Gedo’s presence to score a win in last year’s tournament.

Ishii also holds a positive career win/loss record of 4-3 on the final night of league competition.

and would take great delight in furthering that edge,

as well as helping one of his CHAOS teammates in Okada or Will Osprey to the finals in the process. 

 

 Day 17 G1 CLIMAX 30 2020 10 16 Full Show

 

 

 

 

Watch online

 

 

Server 1

 

 

 

 

watch now

 

 

 

 

Server-2

 

 

 

watch now

 

 

 

 

Server-3

 

 

 

NJPW Day 17 G1 CLIMAX 30

 

 

 

 

Uploaded By Site DX-TV.com

 

 

 

 

Download Free Links with normal and high Speed [ more 14 hosts ]  

 

 

 

htp://shrt10.com/9OykI
http://shrt10.com/nAl5KI
http://shrt10.com/W4eHRu
http://shrt10.com/I9F8OQmJ
http://shrt10.com/3miQ38BGr
http://shrt10.com/HBHrznd
http://shrt10.com/g7KFMQ4

 

 

 

 

Download Links with premium High Speed   

 

 

 

 

 

dropapk.to

 

 

 

nitroflare.com

 

 

 

rapidgator.net

 

 

 

uploaded.net

 

 

 

uploadgig.com

 

 

 

 

 

dx-tv.com

 

urlfree.net

Leave a Reply

Your email address will not be published. Required fields are marked *

This site uses Akismet to reduce spam. Learn how your comment data is processed.