NJPW Day 14 G1 CLIMAX 30 2020 10 11 Full Show Online

Watch NJPW Day 14 G1 CLIMAX 30 2020 10 11 Full Show Online DX-TV

 

NJPW G1 CLIMAX 30 Day 14

 

NJPW Free Live Stream

 

NJPW Day 14 G1 CLIMAX 30 2020 10 11 Full Show Online

 

Hiroshi Tanahashi (3-3) vs Hirooki Goto (3-3)

Singles record: 11-1 Tanahashi G1 record: 4-0 Tanahashi

 

Sunday will see the first singles confrontation between Hirooki Goto,

and Hiroshi Tanahashi in over three years, a departure that Goto is likely grateful for.

As one sided a record as you will find in singles competition, Goto has had just one victory over the Ace in 12 singles matches.

Goto was part of a famously impressive 2002 class in the NJPW Dojo,

with 1999 debutant Tanahashi being the clear senpai to Goto throughout their respective careers. 

A memorable first IWGP Heavyweight Championship challenge in November 2007 in Ryogoku being a particular highlight.

G1 CLIMAX 30 Day 14

Yet results everywhere except from the 2012 New Japan Cup final have been elusive for Goto.

Goto and Tanahashi have a long history opposite one another they’re fighting tonight for the immediate future of the final weekend. 

Juice Robinson (3-3) vs SANADA (3-3)

Singles record: 1-1 (2017, 2018 G1s)

G1 CLIMAX 30 Day 14

Juice Robinson and SANADA walk into this crucial meeting in Aichi with ,

an even shoreline against one another and in their respective campaigns. 

After a slow start saw him go 0-3, SANADA picked up wins over Tetsuya Naito, Zack Sabre Jr.

and then KENTA to go even, while Juice’s first six matches were almost the opposite,

a hot start now seeing back to back losses to Hiroshi Tanahashi and Tetsuya Naito.

G1 CLIMAX 30 Day 14

Complete name : NJPW Day 14 G1 CLIMAX 30 2020 10 11 WEB H264 DX-TV.mp4
Format : MPEG-4
Format profile : Base Media
Codec ID : isom
File size : 1.97 GiB
Duration : 2 h 23 min
Overall bit rate : 1 969 kb/s
application : Lavf58.25.100

G1 CLIMAX 30 Day 14

Video
ID : 1
Format : AVC
Duration : 2 h 23 min
Bit rate : 1 860 kb/s
Width : 960 pixels
Height : 540 pixels
Display aspect ratio : 16:9
Frame rate mode : Variable
Frame rate : 30.000 FPS
Color space : YUV
Chroma subsampling : 4:2:0
Bit depth : 8 bits
Scan type : Progressive
Bits/(Pixel*Frame) : 0.120
Stream size : 1.86 GiB (94%)
Color range : Limited
Color primaries : BT.601 PAL
Transfer characteristics : BT.601
Matrix coefficients : BT.470
Codec configuration box : avcC

NJPW G1 CLIMAX 30 Day 14

Audio
ID : 2
Format : AAC LC
Format/Info : Advanced
Codec ID : mp4a-40-2
Duration : 2 h 23 min
Bit rate mode : Constant
Bit rate : 99.2 kb/s
Channel(s) : 2 channels
Channel layout : L R
Sampling rate : 44.1 kHz
Frame rate : 43.066 FPS
Compression mode : Lossy
Stream size : 102 MiB (5%)
Default : Yes
Alternate group : 1

 

 

 

NJPW Day 14 G1 CLIMAX 30 2020 10 11 Full Show Online

 

 

 

 

Watch online

 

 

 

 

 

Server 1

 

 

 

 

watch now

 

 

 

 

Server-2

 

 

 

NJPW G1 CLIMAX 30 Day 14

 

 

 

 

Server-3

 

 

 

NJPW G1 CLIMAX 30 Day 14

 

 

 

 

Uploaded By Site DX-TV.com

 

 

 

 

Download Free Links with normal and high Speed [ more 14 hosts ]  

 

 

 

http://shrt10.com/4BvDtLz5
http://shrt10.com/YUB2CWen
http://shrt10.com/kg6Vr
http://shrt10.com/ZsMQx
http://shrt10.com/VA3kze98y
http://shrt10.com/62zC7cJF
http://shrt10.com/XzBPE
http://shrt10.com/niVFH
http://shrt10.com/S8U7Gn
http://shrt10.com/5uZeV8Z
http://shrt10.com/9XRLM5eb1
http://shrt10.com/1rX5f7ZMg

 

 

 

 

Download Links with premium High Speed   

 

 

 

dropapk.to

 

 

 

nitroflare.com

 

 

 

rapidgator.net

 

 

 

uploaded.net

 

 

 

uploadgig.com

 

 

 

 

 

dx-tv.com

 

urlfree.net

Leave a Reply

Your email address will not be published. Required fields are marked *

This site uses Akismet to reduce spam. Learn how your comment data is processed.