NJPW Day 13 G1 Climax 30 English 2020 10 10

Watch NJPW Day 13 G1 Climax 30 English 2020 10 10 720p DX-TV

 

NJPW Day 13 G1 Climax 30 English

 

NJPW Day 13 G1 Climax 30 English

 

NJPW Day 13 G1 Climax 30 English 2020 10 10

 

 

Ibushi, Okada, White, Ospreay top A Block after seventh matches in Osaka. 

 

With just two matches remaining on the A Block schedule after G1 Climax hit Osaka’s EDION Arena for the third time on the tour, Kota Ibushi, Will Ospreay, Kazuchika Okada and Jay White sit atop the group on ten points while Yujiro Takahashi remains the last place runner at zero.

NJPW Day 13 G1 Climax 30 English

The first group match of the evening saw Jeff Cobb in a must-win situation against Tomohiro Ishii. Always expected to be a hoss fight, the match started in fitting form with both men colliding with shoulder tackles before Ishii was put down by the larger Cobb. An arrogant kip-up from Cobb when Ishii responded however, led the Stone Pitbull to gain an advantage with a backdrop suplex and brutal chops. 

When Ishii got too confident himself as he paintbrushed Cobb with boots and foul language, Cobb threw his opponent clean across the ring with a T-Bone suplex, and set the table for a suplex party. Ishii’s response was to pull away the table cloth, which he did with a huge vertical suplex of his own and chops and jabs fired into Cobb in the ropes, the referee stepping in as Cobb appeared to have difficulty defending himself. 

NJPW Day 13 G1 Climax 30 English

Sato again stepped in when an almighty elbow rocked Mr. Athletic, but Cobb rallied to deliver a thunderous belly to belly to Ishii, only succeeding in firing up his opponent as the two men exchanged throws. With a lethal rocket headbutt, it was Cobb gaining the upper hand, and the Olympian followed by misdirecting Ishii in midair with a German suplex before a Gachimuchi Moonsault connected for two. 

Ishii escaped Tour of the Islands and landed a jumping high kick, but landed hard on the right knee that has been giving him trouble through the tournament. A slight hobble when running off the ropes gave Cobb time to connect with a headbutt, but Ishii still stayed in the game with a thunderous lariat and then a second blow which all but decapitated Cobb for the nearest of nearfalls.

Day 13 G1 Climax 30 English

Complete name : NJPW.2020.10.10.G1.Climax.30.Day.13.ENGLISH.720p.WEB.h264-LATE.mkv
Format : Matroska
Format version : Version 4
File size : 2.15 GiB
Duration : 2 h 31 min
Overall bit rate : 2 032 kb/s

Video
ID : 1
Format : AVC
Duration : 2 h 31 min
Bit rate : 1 904 kb/s
Width : 1 280 pixels
Height : 720 pixels
Display aspect ratio : 16:9
Frame rate mode : Constant
Frame rate : 30.000 FPS
Color space : YUV
Chroma subsampling : 4:2:0
Bit depth : 8 bits
Scan type : Progressive
Bits/(Pixel*Frame) : 0.069
Stream size : 2.01 GiB (94%)
Forced : No

Day 13 G1 Climax 30 English

Audio
ID : 2
Format : AAC LC
Format/Info : Advanced Audio
Codec ID : A_AAC-2
Duration : 2 h 31 min
Bit rate : 126 kb/s
Channel(s) : 2 channels
Channel layout : L R
Sampling rate : 44.1 kHz
Frame rate : 43.066 FPS (1024 SPF)
Compression mode : Lossy
Delay relative to video : -23 ms
Stream size : 136 MiB (6%)
Language : English
Default : Yes
Forced : No

 

 

 

NJPW Day 13 G1 Climax 30 English 2020 10 10

 

 

Watch online

 

 

 

Server 1

 

 

 

 

watch now

 

 

 

 

Server-2

 

 

 

NJPW Day 13 G1 Climax 30 English

 

 

 

 

Server-3

 

 

 

watch now

 

 

 

 

Uploaded By Site DX-TV.com

 

 

 

 

Download Free Links with normal and high Speed [ more 14 hosts ]  

 

 

 

http://shrt10.com/dKvvWzJ3m
http://shrt10.com/Im110
http://shrt10.com/NmxMW6AK0
http://shrt10.com/CTZCSOtm
http://shrt10.com/tr2Y0Sk
http://shrt10.com/uHv6N129
http://shrt10.com/aYQl204Fj
http://shrt10.com/KUE0nWT

 

 

 

Download Links with premium High Speed   

 

 

 

dropapk.to

 

 

 

nitroflare.com

 

 

 

rapidgator.net

 

 

 

uploaded.net

 

 

 

uploadgig.com

 

 

 

 

 

dx-tv.com

 

urlfree.net

Leave a Reply

Your email address will not be published. Required fields are marked *

This site uses Akismet to reduce spam. Learn how your comment data is processed.