NJPW Day 12 G1 CLIMAX 30 2020 Full Show Online

Watch NJPW Day 12 G1 CLIMAX 30 2020 Full Show Online DX-TV

 

G1 CLIMAX 30 Day 12

 

G1 CLIMAX 30 Day 12
 


 

 

NJPW Day 12 G1 CLIMAX 30 2020 Full Show Online

 

 

Complete name : NJPW Day 12 G1 CLIMAX 30 2020 Full Show Online.mp4
Format : MPEG-4
Format profile : Base Media
Codec ID : isom
File size : 2.60 GiB
Duration : 3 h 11 min
Overall bit rate : 1 948 kb/s
Writing application : Lavf58 

G1 CLIMAX 30 Day 12

Video
ID : 1
Format : AVC
Duration : 3 h 11 min
Bit rate : 1 839 kb/s
Width : 960 pixels
Height : 540 pixels
Display aspect ratio : 16:9
Frame rate mode : Variable
Frame rate : 30.000 FPS
Color space : YUV
Chroma subsampling : 4:2:0
Bit depth : 8 bits
Scan type : Progressive
Bits/(Pixel*Frame) : 0.118
Stream size : 2.46 GiB (94%)
Color range : Limited
Color primaries : BT.601 PAL
Transfer characteristics : BT.601
Matrix coefficients : BT.470  
Codec configuration box : avcC

G1 CLIMAX 30 Day 12

Audio
ID : 2
Format : AAC LC
Format/Info : Advanced Audio
Codec ID : mp4a-40-2
Duration : 3 h 11 min
Bit rate mode : Constant
Bit rate : 99.2 kb/s
Channel(s) : 2 channels
Channel layout : L R
Sampling rate : 44.1 kHz
Frame rate : 43.066 FPS (1024 SPF)
Compression mode : Lossy
Stream size : 136 MiB (5%)
Default : Yes
Alternate group : 1

G1 CLIMAX 30 Day 12

Hirooki Goto (2-3) vs YOSHI-HASHI (1-4)

Singles record 1-0 Goto (2017 G1 Climax)

 

Firm friends, and NEVER Openweight 6-Man Tag Team Champions will face off in the first tournament match of the evening when Hirooki Goto meets YOSHI-HASHI. Their first singles meeting in three years comes with Goto having an edge over the Headhunter, but with a troubled record so far in this year’s tournament, as shoulder issues have plagued him to three defeats and four points. 

G1 CLIMAX 30 Day 12

YOSHI-HASHI certainly knows what it’s like to wrestle through shoulder pain. With a 1-4 record belying one of the best and most motivated series of performances in his career to date, the question will be whether YOSHI-HASHI has the killer instinct required to target his opponent’s obvious weakness, and exploit it on the way to victory. A moment’s hesitation, and Goto will be quick to capitalize, just as he was quick to score the fastest vctory in G1 history this week in Hiroshima over Toru Yano.

 

NJPW Day 12 G1 CLIMAX 30 2020 Full Show Online

 

 

Watch online

 

 

 

Server 1

 

 

 

 

G1 CLIMAX 30 Day 12

 

 

 

 

Server-2

 

 

 

watch now

 

 

 

 

Server-3

 

 

 

G1 CLIMAX 30 Day 12

 

 

 

 

Uploaded By Site DX-TV.com

 

 

 

 

Download Free Links with normal and high Speed [ more 14 hosts ]  

 

 

 

 

http://shrt10.com/x09V6fZ
http://shrt10.com/nSTot9t7P
http://shrt10.com/VcoIiP
http://shrt10.com/lUalBJagd
http://shrt10.com/tX9AuqFm
http://shrt10.com/lVKMAPp
http://shrt10.com/zxwLIq1Z4
http://shrt10.com/jQ4o6Adh5
http://shrt10.com/EYuvP3

 

 

 

Download Links with premium High Speed   

 

 

 

nitroflare.com

 

 

 

rapidgator.net

 

 

 

uploaded.net

 

 

 

uploadgig.com

 

 

 

 

 

dx-tv.com

 

urlfree.net

Leave a Reply

Your email address will not be published. Required fields are marked *

This site uses Akismet to reduce spam. Learn how your comment data is processed.