NJPW CMLL Fantastica Mania 2020 01 20 English DX-TV

watch NJPW CMLL Fantastica Mania 2020 01 20 English DX-TV

 

 

NJPW

 

 

 

 

dx-tv.com

 

 

 

 

NJPW CMLL Fantastica Mania 2020 01 20 English DX-TV

 

 

 

 

 

Complete name : NJPW CMLL Fantastica Mania 2020 01 20 ENG WEB x264 DX-TV.mp4
Format : MPEG-4
Format profile : Base Media
File size : 2.24 GiB
Duration : 2 h 27 min
Overall bit rate : 2 170 kb/s
Writing application : Lavf58.20.100

Video
ID : 1
Format : AVC
Duration : 2 h 27 min
Bit rate : 2 000 kb/s
Width : 1 280 pixels
Height : 720 pixels
Display aspect ratio : 16:9
Frame rate mode : Constant
Frame rate : 30.000 FPS
Color space : YUV
Chroma subsampling : 4:2:0
Bit depth : 8 bits
Scan type : Progressive
Bits/(Pixel*Frame) : 0.072
Stream size : 2.07 GiB (92%)
Audio
ID : 2
Format : AAC LC
Format/Info : Advanced Audio Codec Low Complexity
Codec ID : mp4a-40-2
Duration : 2 h 27 min
Bit rate mode : Constant
Bit rate : 161 kb/s
Channel(s) : 2 channels
Channel layout : L R
Sampling rate : 44.1 kHz
Frame rate : 43.066 FPS (1024 SPF)
Compression mode : Lossy
Stream size : 171 MiB (7%)
Title : simple_aac
Default : Yes
Alternate group : 1

 

 

 

Watch online

 

 

Server 1

 

 

 

watch now

 

 

NJPW CMLL Fantastica Mania 2020 01 20 English DX-TV

 

 

 

Uploaded By Site DX-TV.com

 

 

 

 

 

Download VIP Members FTP server Download 1 Link and Free Links 

 

 

 

Limited Time will be removed after 90 days if you need available again pm email admin

 

[member]

FTP Link Download high speed

[/member]

1fichier.com 

 

 

dailyuploads.net

 

 

dl.free.fr

 

 

earn4files.com

 

 

filerio.in

 

 

 

Download with premium account Links 

 

 

nitroflare.com

 

 

rapidgator.net

 

 

uploaded.net

 

 

 

 

 

 

 

 

 

 73 total views,  2 views today

%d bloggers like this: