NJPW Best of the Super Junior XXV 720p 2018 05 22 samurai TV Download

NJPW Best of the Super Junior XXV 720p 2018 05 22 samurai TV Download

 

 

 

 


dx-tv.com

 

 

 

 

 

Complete name : 2018.05.22.NJPW.Best.of.the.Super.Junior.XXV.Tokyo.Korakuen.Hall.(Samurai.TV).mp4
Format : MPEG-4
Format profile : Base Media
Codec ID : isom
File size : 3.81 GiB
Duration : 3h 16mn
Overall bit rate : 2 771 Kbps
Writing application : Lavf57.84.100

Video
ID : 1
Format : AVC
Format/Info : Advanced Video Codec
Codec ID/Info : Advanced Video Coding
Duration : 3h 16mn
Duration_LastFrame : -23ms
Bit rate mode : Variable
Bit rate : 2 630 Kbps
Width : 1 280 pixels
Height : 720 pixels
Display aspect ratio : 16:9
Frame rate mode : Constant
Frame rate : 60.000 fps
Color space : YUV
Chroma subsampling : 4:2:0
Bit depth : 8 bits
Scan type : Progressive
Bits/(Pixel*Frame) : 0.048
Stream size : 3.62 GiB (95%)
Writing library : x264 core 148 r2762 90a61ec

ID : 2
Format : AAC
Format/Info : Advanced Audio Codec
Format profile : LC
Codec ID : 40
Duration : 3h 16mn
Bit rate mode : Constant
Bit rate : 128 Kbps
Channel(s) : 2 channels
Channel positions : Front: L R
Sampling rate : 44.1 KHz
Compression mode : Lossy
Stream size : 180 MiB (5%)

 

 

 

 

 

 

NJPW Best of the Super Junior XXV 720p 2018 05 22 samurai TV Download

 

 

 

 

 

Uploaded By Site DX-TV.com

 

 

 

open rar file to see this password

 

 

 

 

The password is : DX-TV.com

 

 

 

Uploaded.net + rapidgator.net

 

 

 

 

 

http://shrt10.com/zGBN5T

 

 

 

 

 

 

 

http://shrt10.com/A1AZxnN

 

 

 

 

 

 

 

NJPW Best of the Super Junior XXV 720p 2018 05 22 samurai TV Download