NJPW 49th Anniversary Event 2021 03 04 English / Japanese

NJPW 49th Anniversary Event 2021 03 04 English / Japanese DX-TV

NJPW 49th Anniversary Event 2021

 NJPW 49th Anniversary Event 2021

 

 

 

Download Links with premium High Speed


 

Dopapk

 

 

Show Links

 

http://shrt10.com/kl5xSM
http://shrt10.com/MNSLaiNs

 

[collapse]

 

 

Nitroflare

 

 

Show Links

 

http://shrt10.com/zB6FOBNs
http://shrt10.com/zJy39aixz

 

[collapse]

 

 

Rapidgator

 

 

Show Links

 

http://shrt10.com/0jGJHoQNP
http://shrt10.com/akfrHjP

 

[collapse]

 

 

Uploaded

 

 

Show Links

 

http://shrt10.com/Nqj0O0
http://shrt10.com/vAoG0og

 

[collapse]

 

 

Watch online

 

Server 1

 

 

 

 

watch now

 

watch now

 

 

 

 

Server-2

 

 

 

 

NJPW 49th Anniversary Event 2021

 

watch now

 

 

 

|Server-3

 

 

 

 

NJPW 49th Anniversary Event 2021

 

watch now

 

 

Uploaded By Site DX-TV.com

 

 

Show Info This Show

 

 

Complete name : NJPW.2021.03.04.49th.Anniversary.Show.ENGLISH.WEB.h264-LATE.mkv
Format : Matroska
Format version : Version 4
File size : 2.23 GiB
Duration : 2 h 46 min
Overall bit rate : 1 926 kb/s

49th Anniversary Event

Video
ID : 1
Format : AVC
Duration : 2 h 46 min
Bit rate : 1 824 kb/s
Width : 960 pixels
Height : 540 pixels
Display aspect ratio : 16:9
Frame rate mode : Constant
Frame rate : 30.000 FPS
Color space : YUV
Chroma subsampling : 4:2:0
Bit depth : 8 bits
Scan type : Progressive
Bits/(Pixel*Frame) : 0.117
Stream size : 2.11 GiB (95%)
Default : Yes
Forced : No
Color range : Limited
Color primaries : BT.601 PAL
Transfer characteristics : BT.601
Matrix coefficients : BT.470 System B/G

Audio
ID : 2
Format : AAC LC
Codec ID : A_AAC-2
Duration : 2 h 46 min
Bit rate : 99.8 kb/s
Channel(s) : 2 channels
Channel layout : L R
Sampling rate : 44.1 kHz
Frame rate : 43.066 FPS
Compression mode : Lossy
Stream size : 119 MiB (5%)
Language : English
Default : Yes
Forced : No

49th Anniversary Event

Complete name : NJPW.2021.03.04.49th.Anniversary.Show.JAPANESE.WEB.h264-LATE.mkv
Format : Matroska
Format version : Version 4
File size : 2.24 GiB
Duration : 2 h 45 min
Overall bit rate : 1 931 kb/s

Video
ID : 1
Format : AVC
Duration : 2 h 45 min
Bit rate : 1 828 kb/s
Width : 960 pixels
Height : 540 pixels
Display aspect ratio : 16:9
Frame rate mode : Constant
Frame rate : 30.000 FPS
Color space : YUV
Chroma subsampling : 4:2:0
Bit depth : 8 bits
Scan type : Progressive
Bits/(Pixel*Frame) : 0.118
Stream size : 2.12 GiB (95%)
Default : Yes
Forced : No
Color range : Limited
Color primaries : BT.601 PAL
Transfer characteristics : BT.601
Matrix coefficients : BT.470 System B/G

49th Anniversary Event

Audio
ID : 2
Format : AAC LC
Codec ID : A_AAC-2
Duration : 2 h 45 min
Bit rate : 99.6 kb/s
Channel(s) : 2 channels
Channel layout : L R
Sampling rate : 44.1 kHz
Frame rate : 43.066 FPS (1024 SPF)
Compression mode : Lossy
Stream size : 118 MiB (5%)
Language : English
Default : Yes
Forced : No

NJPW 49th Anniversary Event 2021

 

[collapse]

 

 

https://dx-tv.com/