NJPW 2018 11 01 Road to Power Struggle Super Jr Tag League 2018 Day 12 English WEB LATE

NJPW 2018 11 01 Road to Power Struggle Super Jr Tag League 2018 Day 12 English WEB LATE

 

 

 


 

dx-tv.com

 

 

 

 

 
Complete name : JPW.2018.11.01.Road.to.Power.Struggle.Super.Jr.Tag.League.2018.Day.12.JAPANESE.WEB.h264-LATE.mkv
Format : Matroska
Format version : Version 4 / Version 2
File size : 2.33 GiB
Duration : 2 h 49 min
Overall bit rate : 1 972 kb/s
Encoded date : UTC 2018-11-01 14:06:16
Writing application : mkvmerge v26.0.0 (‘In The Game’) 64-bit
Writing library : libebml v1.3.6 + libmatroska v1.4.9

Video
ID : 1
Format : AVC
Format/Info : Advanced Video Codec
Codec ID : V_MPEG4/ISO/AVC
Duration : 2 h 49 min
Bit rate mode : Constant
Bit rate : 1 904 kb/s
Width : 960 pixels
Height : 540 pixels
Display aspect ratio : 16:9
Frame rate mode : Constant
Frame rate : 29.970 (29970/1000) FPS
Original frame rate : 29.970 (30000/1001) FPS
Standard : NTSC
Color space : YUV
Chroma subsampling : 4:2:0
Bit depth : 8 bits
Scan type : Progressive
Bits/(Pixel*Frame) : 0.123
Stream size : 2.21 GiB (95%)
Default : Yes
Forced : No
Color range : Limited

Audio
ID : 2
Format : AAC
Format/Info : Advanced Audio Codec
Format profile : LC
Codec ID : A_AAC-2
Duration : 2 h 49 min
Bit rate : 96.0 kb/s
Channel(s) : 2 channels
Channel positions : Front: L R
Sampling rate : 44.1 kHz
Frame rate : 43.066 FPS (1024 SPF)
Compression mode : Lossy
Delay relative to video : -34 ms
Stream size : 116 MiB (5%)
Language : English
Default : Yes
Forced : No

 

 

NJPW 2018 11 01 Road to Power Struggle Super Jr Tag League 2018 Day 12 English WEB LATE

 

 

 

 

Watch online

 

 

Waiting finish converting video

 

 

Server 1

 

 

 

 

 

 

 

 

 

 

 

 

 

 

 

Server 2

 

 

 

 

 

 

 

 

 

 

 

 

 

 

Uploaded By Site DX-TV.com

 

 

 

open rar file to see this password

 

 

 

 

The password : DX-TV.com

 

 

 

 

Uploaded.net + rapidgator.net

 

 

 

 

http://shrt10.com/Gk8hD1

 

 

 

 
http://shrt10.com/SPsB2c
 

 

 

NJPW 2018 11 01 Road to Power Struggle Super Jr Tag League 2018 Day 12 English WEB LATE