NEW Better Than You 2021 10 02 Full Show Replay

NEW Better Than You 2021 10 02 1080p Full Show Replay DX-TV

NEW Better Than You 2021

 NEW Better Than You 2021

 

 

 

Download Links with premium High Speed

Dopapk

 

 

Show Links

 

 

 

 

Nitroflare

 

 

Show Links

 

 

http://shrt10.com/8oNvVdw
http://shrt10.com/8AQIhlGz1

 

 

 

 

Rapidgator

 

 

Show Links

 

 

http://shrt10.com/w2Qmodu
http://shrt10.com/xNKlCizo

 

 

 

 

 

Uploaded

Show Links

 

 

 

 

 

Watch online

 

Server 1

 

 

 

 

watch now

 

 

 

 

Server-2

 

 

 

 

watch now

 

 

 

|Server-3

 

 

 

 

watch now

 

 

Uploaded By Site DX-TV.com

 

 

Open Info Show

 

Northeast Wrestling Presents: Better Than You

(10/2/21 – Danbury, CT)

1) 8-Man Tag

Brett Ryan Gosselin, “Mucho” Chris Moljo, & The Brick City Boyz (J. Cruz & Victor Chase)

vs Chris Battle, Gio Galvano, & Waves & Curls (Traevon Jordan & Jaylen Brandyn)

NEW Better Than You 2021

2) J. Heru vs Cole Karter

3) NEW Tag Team Championship

Club Cam (Cam Zagami & Antonio Zambrano w/Nikii Duke

vs Inzanely Rude (RJ Rude & Zane Bernardo)

4) Erick Redbeard (fka Erick Rowan)

vs Wrecking Ball Legursky

5) Tag Team Match

Steven Stetson & Ray Jaz

vs Nzo & Dango (fka Fandango)

NEW Better Than You 2021

6) “Megasus” Megan Bayne vs “The Virtuosa” Deonna Purrazzo

7) Northeast Wrestling Championship

Dan Maff vs Keith Youngblood

8) Rocky Romero vs Will Ospreay

9) “Mr. Northeast Wrestling” Brian Anthony w/Vito

vs Eddie Kingston

10) 6 Man Tag

Trust Fund (Tommy & JP Grayson, & Channing Thomas, w/Jared Silberkleit)

vs Hardy Family Office (Matt Hardy & Private Party)

 

 

Complete name : New.2021.10.02.Better.Than.You.480P.Web dx-tv.com.mp4
Format : MPEG-4
Format profile : Base Media
Codec ID : mp42
File size : 1.62 GiB
Duration : 3 h 0 min
Overall bit rate : 1 279 kb/s

NEW Better Than You 2021

Video
ID : 1
Format : AVC
Format/Info : Advanced Video
Duration : 3 h 0 min
Bit rate : 1 109 kb/s
Width : 720 pixels
Height : 480 pixels
Display aspect ratio : 16:9
Original display aspect rat : 16:9
Frame rate mode : Constant
Frame rate : 29.970 (30000/1001) FPS
Standard : NTSC
Color space : YUV
Chroma subsampling : 4:2:0
Bit depth : 8 bits
Scan type : Progressive
Bits/(Pixel*Frame) : 0.107
Stream size : 1.40 GiB (87%)
Color range : Limited
Color primaries : BT.709
Transfer characteristics : BT.709
Matrix coefficients : BT.709
Codec configuration box : avcC

NEW Better Than You 2021

Audio
ID : 2
Format : AAC LC
Codec ID : mp4a-40-2
Duration : 3 h 0 min
Bit rate mode : Constant
Bit rate : 160 kb/s
Channel(s) : 2 channels
Channel layout : L R
Sampling rate : 48.0 kHz
Frame rate : 46.875 FPS (1024 SPF)
Compression mode : Lossy
Stream size : 207 MiB (13%)
Title : Stereo
Default : Yes
Alternate group : 1

Complete name : NEW.2021.10.02.Better.Than.You.1080p.WEB.h264-NCMP.mp4
Format : MPEG-4
Format profile : Base Media
Codec ID : isvc1/mp41)
File size : 5.26 GiB
Duration : 3 h 0 min
Overall bit rate : 4 161 kb/s

Video
ID : 1
Format : AVC
Format/Info : Video Codec
Duration : 3 h 0 min
Duration_FirstFrame : -24 ms
Bit rate : 3 958 kb/s
Width : 1 920 pixels
Height : 1 080 pixels
Display aspect ratio : 16:9
Frame rate mode : Constant
Frame rate : 29.970 (30000/1001) FPS
Color space : YUV
Chroma subsampling : 4:2:0
Bit depth : 8 bits
Scan type : Progressive
Bits/(Pixel*Frame) : 0.064
Stream size : 5.00 GiB (95%)
Color range : Limited
Color primaries : BT.709
Transfer characteristics : BT.709
Matrix coefficients : BT.709
Codec configuration box : avcC

NEW Better Than You 2021

Audio
ID : 2
Format : AAC LC
Codec ID : mp4a-40-2
Duration : 3 h 0 min
Bit rate mode : Constant
Bit rate : 192 kb/s
Channel(s) : 2 channels
Channel layout : L R
Sampling rate : 48.0 kHz
Frame rate : 46.875 FPS (1024 SPF)
Compression mode : Lossy
Stream size : 248 MiB (5%)
Default : Yes
Alternate group : 1

 

 

https://dx-tv.com/

 

 

 

 

 

You May Also Like

Leave a Reply

Your email address will not be published. Required fields are marked *

This site uses Akismet to reduce spam. Learn how your comment data is processed.