MMA Titan FC 61 720p Full Show Online

Watch MMA Titan FC 61 720p Full Show Online DX-TV

 

Titan FC 61 720p

 Titan FC 61 720p
 

 

MMA Titan FC 61 720p Full Show Online

 

 

 

Complete name : Titan.FC.61.720p.WEB.h264-SHiFT.mkv
Format : Matroska
Format version : Version 4
File size : 4.55 GiB
Duration : 2 h 19 min
Titan FC 61 mode : Variable
Overall bit rate : 4 672 kb/s

 Titan FC 61 720p Full Show Online

Video
ID : 1
Format : AVC
Format/Info : Advanced Video Codec
dprofile : [email protected]
settings : CABAC / 4 Ref Frames
Titan FC 61, CABAC : Yes
Format settings, : 4 frames
Codec ID : V_MPEG4/ISO/AVC
Duration : 2 h 19 min
Bit rate mode : Variable
Bit rate : 4 538 kb/s
Maximum bit rate : 4 809 kb/s
Width : 1 280 pixels
Height : 720 pixels
Titan FC 61 ratio : 16:9
Frame rate mode : Constant
Frame rate : 30.000 FPS
Standard : NTSC
Color space : YUV
Chroma subsampling : 4:2:0
Bit depth : 8 bits
Scan type : Progressive
Bits/(Pixel*Frame) : 0.164
Stream size : 4.42 GiB (97%)
Default : Yes
Forced : No
Color range : Limited
Color primaries : BT.709
Transfer Titan FC 61: BT.709
Matrix coefficients : BT.709

Titan FC 61 720p Full Show Online

Audio
ID : 2
Format : AAC LC
Format/Info : Titan FC 61 Audio
Codec ID : A_AAC-2
Duration : 2 h 19 min
Bit rate : 132 kb/s
Channel(s) : 2 channels
Channel layout : L R
Sampling rate : 48.0 kHz
Frame rate : 46.875 FPS (1024 SPF)
Compression mode : Lossy
Titan FC 61 video : -21 ms
Stream size : 131 MiB (3%)
Default : Yes
Forced : No

 

 

MMA Titan FC 61 720p Full Show Online

 

 

 

Watch online

 

 

Server 1

 

 

 

 

watch now

 

 

 

 

Server 2

 

 

 

watch now

 

 

 

Server-3

 

 

 

Titan FC 61

 

 

 

Uploaded By Site DX-TV.com

 

 

 

Download with premium account Links 

 

 

Keep2Share

 

 

nitroflare.com

 

 

rapidgator.net

 

 

uploadgig.com

 

 

 

dx-tv.com

 

urlfree.net

 113 total views,  3 views today

Leave a Reply

Your email address will not be published. Required fields are marked *

This site uses Akismet to reduce spam. Learn how your comment data is processed.

%d bloggers like this:
Optimized with PageSpeed Ninja