MLW Never Say Never 2021 Online Replay 720p

MLW Never Say Never 2021 Online Replay 720p NWCHD DX-TV

MLW Never Say Never 2021

 MLW Never Say Never 2021

 

 

 

Download Links with High Speed


 

Dopapk

 

 

Show Links

 

http://shrt10.com/NEnuX

 

[collapse]

 

 

Nitroflare

 

 

Show Links

 

http://shrt10.com/izmCiVlu

 

[collapse]

 

 

Rapidgator

 

 

Show Links

 

http://shrt10.com/63Gy0L

 

[collapse]

 

 

Uploaded

 

 

Show Links

 

http://shrt10.com/gZzLoKb

 

[collapse]

 

 

Watch online

 

Server 1

 

 

 

 

MLW Never Say Never

 

 

 

 

Server-2

 

 

 

 

watch now

 

 

 

|Server-3

 

 

 

 

watch now

 

 

Uploaded By Site DX-TV.com

 

 

Show Info This Show

 

 

Complete name : MLW.Never.Say.Never.2021.720p.HDTV.x264-NWCHD.mp4
Format : MPEG-4
Format profile : Base Media
File size : 1.68 GiB
Duration : 51 min 2 s
Overall bit rate mode : Variable
Overall bit rate : 4 708 kb/s

MLW Never Say Never

Video
ID : 1
Format : AVC
Format/Info : Advanced Video
Duration : 51 min 2 s
Bit rate : 4 500 kb/s
Width : 1 280 pixels
Height : 720 pixels
Display aspect ratio : 16:9
Frame rate mode : Constant
Frame rate : 29.970 (30000/1001) FPS
Color space : YUV
Chroma subsampling : 4:2:0
Bit depth : 8 bits
Scan type : Progressive
Bits/(Pixel*Frame) : 0.163
Stream size : 1.61 GiB (96%)
Color range : Limited
Color primaries : BT.709
Transfer characteristics : BT.709
Matrix coefficients : BT.709
Codec configuration box : avcC

MLW Never Say Never

Audio
ID : 2
Format : AAC LC
Codec ID : mp4a-40-2
Duration : 51 min 2 s
Bit rate mode : Variable
Bit rate : 192 kb/s
Channel(s) : 2 channels
Channel layout : L R
Sampling rate : 48.0 kHz
Frame rate : 46.875 FPS (1024 SPF)
Compression mode : Lossy
Stream size : 70.2 MiB (4%)
Title : Stereo / Stereo
Language : English
Default : Yes
Alternate group : 1

 

Audio
ID : 2
Format : AAC LC
Codec ID : mp4a-40-2
Duration : 51 min 2 s
Bit rate mode : Variable
Bit rate : 192 kb/s
Channel(s) : 2 channels
Channel layout : L R
Sampling rate : 48.0 kHz
Frame rate : 46.875 FPS (1024 SPF)
Compression mode : Lossy
Stream size : 70.2 MiB (4%)
Title : Stereo / Stereo
Language : English
Default : Yes
Alternate group : 1

MLW Never Say Never

Audio
ID : 2
Format : AAC LC
Codec ID : mp4a-40-2
Duration : 51 min 2 s
Bit rate mode : Variable
Bit rate : 192 kb/s
Channel(s) : 2 channels
Channel layout : L R
Sampling rate : 48.0 kHz
Frame rate : 46.875 FPS (1024 SPF)
Compression mode : Lossy
Stream size : 70.2 MiB (4%)
Title : Stereo / Stereo
Language : English
Default : Yes
Alternate group : 1

MLW Never Say Never

Audio
ID : 2
Format : AAC LC
Codec ID : mp4a-40-2
Duration : 51 min 2 s
Bit rate mode : Variable
Bit rate : 192 kb/s
Channel(s) : 2 channels
Channel layout : L R
Sampling rate : 48.0 kHz
Frame rate : 46.875 FPS (1024 SPF)
Compression mode : Lossy
Stream size : 70.2 MiB (4%)
Title : Stereo / Stereo
Language : English
Default : Yes
Alternate group : 1

 

 

 

[collapse]

 

 

https://dx-tv.com/