MLW Fusion 97 Hail CONTRA 720p

Watch MLW Fusion 97 Hail CONTRA 720p HDTV NWCHD DX-TV

 

MLW Fusion 97

MLW Fusion 97

 

 

 

 

MLW Fusion 97 Hail CONTRA 720p

 

Complete name : MLW.Fusion.97.Hail.CONTRA.720p.HDTV.x264-NWCHD.mp4
Format : MPEG-4
Format profile : Base Media / Version 2
Codec ID : mp42 (isom/iso2/avc1/mp41)
File size : 1.70 GiB
Duration : 51 min 38 s
Overall bit rate mode : Variable
Overall bit rate : 4 702 kb/s

Video
ID : 1
Format : AVC
Duration : 51 min 38 s
Bit rate : 4 500 kb/s
Width : 1 280 pixels
Height : 720 pixels
Display aspect ratio : 16:9
Frame rate mode : Constant
Frame rate : 29.970 (30000/1001) FPS
Color space : YUV
Chroma subsampling : 4:2:0
Bit depth : 8 bits
Scan type : Progressive
Bits/(Pixel*Frame) : 0.163
Stream size : 1.62 GiB (96%)
Color range : Limited
Color primaries : BT.709
Transfer characteristics : BT.709
Matrix coefficients : BT.709
Codec configuration box : avcC

Audio
ID : 2
Format : AAC LC
Format/Info : Advanced Audio Codec Low Complexity
Codec ID : mp4a-40-2
Duration : 51 min 38 s
Bit rate mode : Variable
Bit rate : 192 kb/s
Channel(s) : 2 channels
Channel layout : L R
Sampling rate : 48.0 kHz
Frame rate : 46.875 FPS (1024 SPF)
Compression mode : Lossy
Stream size : 71.1 MiB (4%)
Title : Stereo / Stereo
Default : Yes
Alternate group : 1

 

 

 

Watch online

 

 

Server 1

 

 

 


 

 

 

 

Server 2

 

 

 

 


 

 

 

MLW Fusion 97 Hail CONTRA 720p

 

 

Uploaded By Site DX-TV.com

 

 

 

1fichier.com 

 

 

DDL.to

 

 

dl.free.fr

 

 

rockfile.co

 

 

 

Download with premium account Links 

 

alfafile.net

 

 

nitroflare.com

 

 

rapidgator.net

 

 

uploadgig.com

 

 

 

dx-tv.com

 

You May Also Like